ML
     
  Уважаемый Гость!
Вы можете поддержать проект и зарегистрироваться у наших партнеров - онлайн-стратегия MyLands. При регистрации в игре Вы получите код, который сможете активировать после регистрации на pirat.ca и получить 1000 дублонов.

Ваш код:
4fbd9898b6f10799a3e8edf60f31febd2bc15453
 
     

Прорыв (Виталий Лукин) [2005 г., военный, DVDRip]

Ответить на тему
 
Автор
Сообщение

Пост 02-Апр-2014 16:37

[Q] 

Мархуз

-Прорыв-- Производство: Россия, Киностудия ТОНАП
Режиссер: Виталий Лукин
Жанр: военный
Год выпуска: 2005 г.
Продолжительность: 01:23:10
В ролях: Игорь Лифанов, Анатолий Котенев, Александр Песков, Марина Могилевская, Александр Цуркан, Александр Клюквин, Наталья Панова, Мария Глазкова, Виктор Низовой, Андрей Богданов-Описание: Чечня, 2000 год. Антитеррористическая операция в самом разгаре. Армейская разведка прочесывает квадрат за квадратом, пытаясь обнаружить скрывающиеся в горах банды. Одна из разведгрупп, напоровшись в Аргунском ущелье на небольшой отряд боевиков, вступает в бой. Но вскоре становится ясно — ситуация намного серьезней.
К выходу из ущелья приближается хорошо вооруженная двухтысячная бандитская группировка. Под началом полевого командира Мурада собрались террористы всех мастей и национальностей. Есть даже бывшие русские офицеры. Цель операции - прорваться через позиции федеральных войск на территорию Дагестана и, захватив как можно больше заложников из числа мирного населения, начать диктовать свои условия. Для прорыва выбран наименее защищенный участок.-Качество видео: DVDRip
Контейнер: AVI
Видео кодек: XviD
Аудио кодек: AC3
Видео: 720x416; 1898 kbps; 25 fps; 0.253 bit/pixel
Аудио: 448 kbps; 6 ch; 48 kHz
Cубтитры: отсутствуют
Общее
Полное имя : E:\Torrent\Proriv_[Pirat.ca].torrent.avi
Формат : AVI
Формат/Информация : Audio Video Interleave
Размер файла : 1,37 Гбайт
Продолжительность : 1 ч. 23 м.
Общий поток : 2353 Кбит/сек
Программа кодирования : VirtualDubMod 1.5.4.1 (build 2178/release)
Библиотека кодирования : VirtualDubMod build 2178/release
Видео
Идентификатор : 0
Формат : MPEG-4 Visual
Профиль формата : Advanced [email protected]
Параметр BVOP формата : 1
Параметр QPel формата : Нет
Параметр GMC формата : Без точки перехода
Параметр матрицы формата : Выборочная
Идентификатор кодека : XVID
Идентификатор кодека/Подсказка : XviD
Продолжительность : 1 ч. 23 м.
Битрейт : 1898 Кбит/сек
Ширина : 720 пикселей
Высота : 416 пикселей
Соотношение сторон : 1,731
Частота кадров : 25,000 кадров/сек
Цветовое пространство : YUV
Субдискретизация насыщенности : 4:2:0
Битовая глубина : 8 бит
Тип развёртки : Прогрессивная
Метод сжатия : С потерями
Бит/(Пиксели*Кадры) : 0.253
Размер потока : 1,10 Гбайт (81%)
Библиотека кодирования : XviD 1.2.1 (UTC 2008-12-04)
Аудио
Идентификатор : 1
Формат : AC-3
Формат/Информация : Audio Coding 3
Расширение режима : CM (complete main)
Параметр Endianness формата : Big
Идентификатор кодека : 2000
Продолжительность : 1 ч. 23 м.
Вид битрейта : Постоянный
Битрейт : 448 Кбит/сек
Каналы : 6 каналов
Расположение каналов : Front: L C R, Side: L R, LFE
Частота : 48,0 КГц
Битовая глубина : 16 бит
Метод сжатия : С потерями
Размер потока : 266 Мбайт (19%)
Выравнивание : Разделение по промежуткам
Продолжительность промежутка : 96 мс. (2,40 видеокадра)
Время предзагрузки промежутка : 96 мс.
Язык : Russian
Раздача с 14.00 до 2.30 (время московское)
Download / Скачать

Хотите скачать бесплатно? Зарегистрируйтесь на сайте (ссылка на регистрацию). Pirat.ca - самый быстрый торрент трекер в рунете!

Как скачивать  ·   Что такое торрент  ·   Рейтинг и ограничения



Последний раз редактировалось: Мархуз (2014-09-12 17:15), всего редактировалось 1 раз

-B1ack-

1884

Пост 02-Апр-2014 16:59 (спустя 22 минуты)

[Q] 

rum Пиратка рулит!

_________________
[Профиль]  [ЛС] 

Мархуз ®

4505

Пост 02-Апр-2014 19:58 (спустя 2 часа 58 минут)

[Q] 

спасибо за помощь aa

_________________

Счастье для всех, даром, и пусть никто не уйдёт обиженный
[Профиль]  [ЛС] 

woger68

Корсар

Пост 24-Сен-2014 12:15 (спустя 5 месяцев 21 день)

[Q] 

Просто спасибо! Лови бочку
[Профиль]  [ЛС] 

msdos9

Юнга

54

Пост 24-Сен-2014 23:36 (спустя 11 часов)

[Q] 

А разве это СОВЕТСКИЙ фильм?
[Профиль]  [ЛС] 

xzxscorpxzx

Флибустьер

Пост 15-Фев-2016 11:19 (спустя 1 год 4 месяца)

[Q] 

согласен,перепутали)
[Профиль]  [ЛС] 
Показать сообщения:    
Ответить на тему

Текущее время: Сегодня 19:56

Часовой пояс: GMT + 4



Вы не можете начинать темы
Вы не можете отвечать на сообщения
Вы не можете редактировать свои сообщения
Вы не можете удалять свои сообщения
Вы не можете голосовать в опросах
Вы не можете прикреплять файлы к сообщениям
Вы не можете скачивать файлы

▼ Вниз