ML
     
  Уважаемый Гость!
Вы можете поддержать проект и зарегистрироваться у наших партнеров - онлайн-стратегия MyLands. При регистрации в игре Вы получите код, который сможете активировать после регистрации на pirat.ca и получить 1000 дублонов.

Ваш код:
6f9ab67d502902cc72a06c406977ddb589b7f39d
 
     

Мимино (Георгий Данелия) [1977 г., комедия, DVDRip]

Ответить на тему
 
Автор
Сообщение

Пост 03-Апр-2014 17:54

[Q] 

Мархуз

-Мимино-- Производство: СССР, Мосфильм
Режиссер: Георгий Данелия
Жанр: комедия
Год выпуска: 1977 г.
Продолжительность: 01:31:18
В ролях: Вахтанг Кикабидзе, Фрунзик Мкртчян, Борислав Брондуков, Павел Винник, Арчил Гомиашвили, Микаэла Дроздовская, Марина Дюжева, Петр Любешкин, Николай Деберо, Алексей Алексеев, Савелий Крамаров, Леонид Куравлёв, Евгений Леонов, Николай Граббе, Виктор Шульгин, Абессалом Лория, Елена Проклова, Ипполит Хвичиа, Владимир Басов, Валентина Титова, Котэ Даушвили, Руслан Микаберидзе, Закро Сахвадзе, Русико Морчеладзе, Василий Чхаидзе, Зейнаб Боцвадзе, Александр Новиков, Георгий Данелия, Эдуард Изотов (озвучание - Вадим Спиридонов), Раиса Куркина, Татьяна Распутина, Татьяна Игнатова, Людмила Гаврилова, Виктор Крючков, Таисия Литвиненко, Сергей Голованов, Надежда Семенцова, Владимир Никитин, Матти Гешоннек, Лариса Барабанова, Татьяна Паркина, Александр Январёв, Софья Гаррель, Тамара Твалиашвили, Шалва Херхеулидзе, Артём Карапетян (голос за кадром)-Описание: Валико Мизандари (его позывные и прозвище - Мимино, что по-грузински значит "сокол") - пилот "малой" авиации, обслуживающей горные деревушки Верхней Тушетии (Грузия). Свой вертолет "Ми-2" он называет "пепела" - бабочка. Как-то раз Мимино встречает в аэропорту своего бывшего однокурсника, который управляет нынче сверхзвуковым авиалайнером "Ту-144" и летает за границу. В его экипажа есть стюардесса Лариса Ивановна, сразу покорившая сердце Мимино. Желая достичь успехов в большой авиации и познакомиться с Ларисой Ивановной поближе, Мимино отправляется в Москву...-Качество видео: DVDRip
Контейнер: AVI
Видео кодек: XviD
Аудио кодек: AC3
Видео: 720x544; 2395 kbps; 25 fps; 0.245 bit/pixel
Аудио 1: 448 kbps; 6 ch; 48 kHz
Аудио 2: 448 kbps; 1 ch; 48 kHz
Cубтитры: отсутствуют
К 30-летию картины в Москве на Чистых прудах рядом с домом, где находится квартира Данелии, планировалось установить памятник героям фильма. В декабре 2006 года эту идею одобрила Комиссия по культуре Московской думы. Однако, в марте 2007 года комиссия по фундаментальному искусству при Мосгордуме предложение единогласно отклонила, сославшись на то, что район Чистых прудов перенасыщен памятниками.
5 июля 2011 года памятник работы Зураба Церетели, изображающий Валико, Рубика и Волохова был установлен на родине Рубика — в Дилижане. На открытии памятника присутствовал Вахтанг Кикабидзе, единственный из трёх актёров, живущий на тот момент.
По заявлению министра культуры Грузии Ника Руруа, «памятник подчёркивает искреннюю дружбу людей на человеческом уровне». Также он сообщил, что такой же памятник будет открыт и в Грузии. 14 октября 2011 года памятник героям фильма и режиссёру был установлен в Тбилиси на Авлабарской площади. На церемонию открытия пришло большое количество зрителей, среди которых были гости из Армении, Белоруссии, Литвы, руководство города, депутаты парламента, так же присутствовал мэр Дилижана Армен Сантросян, который присвоил Вахтангу Кикабидзе звание почётного гражданина города.
1977 — Золотой приз на X Московском кинофестивале (Георгий Данелия)
1978 — Приз за лучший комедийный фильм на XI Всесоюзном кинофестивале в Ереване (Георгий Данелия)
1978 — Государственная премия СССР (Георгий Данелия, Вахтанг Кикабидзе, Фрунзик Мкртчян)
1979 — Приз «Золотой Лачено» на XIX Международном кинофестивале в Авеллино (Георгий Данелия)
Общее
Полное имя : E:\Torrent\Mimino_[Pirat.ca].torrent.avi
Формат : AVI
Формат/Информация : Audio Video Interleave
Профиль формата : OpenDML
Размер файла : 2,11 Гбайт
Продолжительность : 1 ч. 31 м.
Общий поток : 3309 Кбит/сек
Программа кодирования : VirtualDubMod 1.5.10.3 | www.virtualdub-fr.org || (build 2550/release)
Библиотека кодирования : VirtualDubMod build 2550/release
Видео
Идентификатор : 0
Формат : MPEG-4 Visual
Профиль формата : Advanced [email protected]
Параметр BVOP формата : 1
Параметр QPel формата : Нет
Параметр GMC формата : Без точки перехода
Параметр матрицы формата : Выборочная
Идентификатор кодека : DX50
Идентификатор кодека/Подсказка : DivX 5
Продолжительность : 1 ч. 31 м.
Битрейт : 2395 Кбит/сек
Ширина : 720 пикселей
Высота : 544 пикселя
Соотношение сторон : 4:3
Частота кадров : 25,000 кадров/сек
Цветовое пространство : YUV
Субдискретизация насыщенности : 4:2:0
Битовая глубина : 8 бит
Тип развёртки : Прогрессивная
Метод сжатия : С потерями
Бит/(Пиксели*Кадры) : 0.245
Размер потока : 1,53 Гбайт (72%)
Библиотека кодирования : XviD 73
Аудио #1
Идентификатор : 1
Формат : AC-3
Формат/Информация : Audio Coding 3
Расширение режима : CM (complete main)
Параметр Endianness формата : Big
Идентификатор кодека : 2000
Продолжительность : 1 ч. 31 м.
Вид битрейта : Постоянный
Битрейт : 448 Кбит/сек
Каналы : 6 каналов
Расположение каналов : Front: L C R, Side: L R, LFE
Частота : 48,0 КГц
Битовая глубина : 16 бит
Метод сжатия : С потерями
Размер потока : 292 Мбайт (14%)
Выравнивание : Разделение по промежуткам
Продолжительность промежутка : 40 мс. (1,00 видеокадр)
Время предзагрузки промежутка : 500 мс.
Аудио #2
Идентификатор : 2
Формат : AC-3
Формат/Информация : Audio Coding 3
Расширение режима : CM (complete main)
Параметр Endianness формата : Big
Идентификатор кодека : 2000
Продолжительность : 1 ч. 31 м.
Вид битрейта : Постоянный
Битрейт : 448 Кбит/сек
Каналы : 1 канал
Расположение каналов : Front: C
Частота : 48,0 КГц
Битовая глубина : 16 бит
Метод сжатия : С потерями
Размер потока : 292 Мбайт (14%)
Выравнивание : Разделение по промежуткам
Продолжительность промежутка : 40 мс. (1,00 видеокадр)
Время предзагрузки промежутка : 500 мс.
Раздача с 14.00 до 2.30 (время московское)
Download / Скачать

Хотите скачать бесплатно? Зарегистрируйтесь на сайте (ссылка на регистрацию). Pirat.ca - самый быстрый торрент трекер в рунете!

Как скачивать  ·   Что такое торрент  ·   Рейтинг и ограничения

Пост 03-Апр-2014 17:58 (спустя 4 минуты)

Топик был перенесен из форума Наше кино (Трюм) в форум Советское кино
kugesan
 

alex denver71

Флибустьер

Пост 26-Ноя-2014 20:08 (спустя 7 месяцев 23 дня)

[Q] 

Автору респект!!! Замечательнейший фильм!!! Всем качать!!!
[Профиль]  [ЛС] 
Показать сообщения:    
Ответить на тему

Текущее время: Сегодня 16:27

Часовой пояс: GMT + 4



Вы не можете начинать темы
Вы не можете отвечать на сообщения
Вы не можете редактировать свои сообщения
Вы не можете удалять свои сообщения
Вы не можете голосовать в опросах
Вы не можете прикреплять файлы к сообщениям
Вы не можете скачивать файлы

▼ Вниз