ML
     
  Уважаемый Гость!
Вы можете поддержать проект и зарегистрироваться у наших партнеров - онлайн-стратегия MyLands. При регистрации в игре Вы получите код, который сможете активировать после регистрации на pirat.ca и получить 1000 дублонов.

Ваш код:
c3360d664ceb84802c84b88ed062a5d134e2ba97
 
     

Хорошо сидим! (Мунид Закиров) [1986 г., комедия, DVDRip]

Ответить на тему
 
Автор
Сообщение

Пост 03-Апр-2014 18:16

[Q] 

Мархуз

-Хорошо сидим!-- Производство: СССР, Мосфильм
Режиссер: Мунид Закиров
Жанр: комедия
Год выпуска: 1986 г.
Продолжительность: 01:11:27
В ролях: Вячеслав Гостинский, Олег Анофриев, Борислав Брондуков, Виктор Ильичев, Михаил Кокшенов, Спартак Мишулин, Евгений Моргунов, Роман Ткачук, Лариса Удовиченко, Леонид Харитонов, Юрий Медведев, Николай Скоробогатов.-Описание: Шеф, Ляля, начснаб, толкач и Эдик любят выпить и пошутить. Когда выпить нечего, они прибегают к изобретательности, которая, при вечно трясущихся руках и полном отсутствии ума, приводит кого в милицию, а кого - в больницу...-Качество видео: DVDRip
Контейнер: AVI
Видео кодек: XviD
Аудио кодек: MP3
Видео: 672x352; 2342 kbps; 25 fps; 0.396 bit/pixel
Аудио: 384 kbps; 2 ch; 48 kHz
Cубтитры: отсутствуют
Общее
Полное имя : E:\Torrent\Horosho_sidim_[Pirat.ca].torrent.avi
Формат : AVI
Формат/Информация : Audio Video Interleave
Размер файла : 1,37 Гбайт
Продолжительность : 1 ч. 11 м.
Общий поток : 2736 Кбит/сек
Программа кодирования : VirtualDubModRus 1.5.10.2 (build 2542/release)
Библиотека кодирования : VirtualDubMod build 2542/release
Видео
Идентификатор : 0
Формат : MPEG-4 Visual
Профиль формата : Advanced [email protected]
Параметр BVOP формата : 1
Параметр QPel формата : Нет
Параметр GMC формата : Без точки перехода
Параметр матрицы формата : Default (MPEG)
Режим смешивания : Сжатый битовый поток
Идентификатор кодека : XVID
Идентификатор кодека/Подсказка : XviD
Продолжительность : 1 ч. 11 м.
Битрейт : 2342 Кбит/сек
Ширина : 672 пикселя
Высота : 352 пикселя
Соотношение сторон : 1,909
Частота кадров : 25,000 кадров/сек
Цветовое пространство : YUV
Субдискретизация насыщенности : 4:2:0
Битовая глубина : 8 бит
Тип развёртки : Прогрессивная
Метод сжатия : С потерями
Бит/(Пиксели*Кадры) : 0.396
Размер потока : 1,17 Гбайт (86%)
Библиотека кодирования : XviD 1.2.0.dev47 (UTC 2006-11-01)
Аудио
Идентификатор : 1
Формат : AC-3
Формат/Информация : Audio Coding 3
Расширение режима : CM (complete main)
Параметр Endianness формата : Big
Идентификатор кодека : 2000
Продолжительность : 1 ч. 11 м.
Вид битрейта : Постоянный
Битрейт : 384 Кбит/сек
Каналы : 2 канала
Расположение каналов : Front: L R
Частота : 48,0 КГц
Битовая глубина : 16 бит
Метод сжатия : С потерями
Размер потока : 196 Мбайт (14%)
Выравнивание : Разделение по промежуткам
Продолжительность промежутка : 40 мс. (1,00 видеокадр)
Время предзагрузки промежутка : 500 мс.
Раздача с 14.00 до 2.30 (время московское)
Download / Скачать

Хотите скачать бесплатно? Зарегистрируйтесь на сайте (ссылка на регистрацию). Pirat.ca - самый быстрый торрент трекер в рунете!

Как скачивать  ·   Что такое торрент  ·   Рейтинг и ограничения

Пост 03-Апр-2014 19:41 (спустя 1 час 25 минут)

Топик был перенесен из форума Наше кино (Трюм) в форум Советское кино
kugesan
 

DellFlyer

Флибустьер

165

Пост 03-Апр-2014 23:06 (спустя 4 часа)

[Q] 

Забойная совдеповская ржака!))) Смотрел несколько раз. Любителям советских комедий советую.
[Профиль]  [ЛС] 

VladekF

Лоцман

Пост 28-Июн-2014 13:33 (спустя 2 месяца 24 дня)

[Q] 

Спасибо! Вспомнил старую добрую сатирическую комедию. Последний раз смотрел лет 30 назад в кинотеатре.
[Профиль]  [ЛС] 
Показать сообщения:    
Ответить на тему

Текущее время: Сегодня 10:04

Часовой пояс: GMT + 4



Вы не можете начинать темы
Вы не можете отвечать на сообщения
Вы не можете редактировать свои сообщения
Вы не можете удалять свои сообщения
Вы не можете голосовать в опросах
Вы не можете прикреплять файлы к сообщениям
Вы не можете скачивать файлы

▼ Вниз