ML
     
  Уважаемый Гость!
Вы можете поддержать проект и зарегистрироваться у наших партнеров - онлайн-стратегия MyLands. При регистрации в игре Вы получите код, который сможете активировать после регистрации на pirat.ca и получить 1000 дублонов.

Ваш код:
fcd618d94adc1456bccbde5047c9cd0930e4ae4d
 
     

Жду и надеюсь (2 серии) (Сурен Шахбазян) [1980 г., военный, TVRip]

Ответить на тему
 
Автор
Сообщение

Пост 04-Апр-2014 14:49

[Q] 

Мархуз

-Жду и надеюсь (2 серии)-- Производство: СССР, Киностудия им. Довженко
Режиссер: Сурен Шахбазян
Жанр: военный
Год выпуска: 1980 г.
Продолжительность: 02:13:27
В ролях: Олег Меньшиков, Лесь Сердюк, Виктор Уральский, Николай Скоробогатов, Виктор Мирошниченко, Александр Мовчан, Наталья Сумская, Борис Новиков-Описание: Великая Отечественная война. 1942 год. Партизанский отряд, действовавший в Полесье, окружен фашистскими войсками. Для успешного прорыва необходимо дезинформировать противника. Чтобы сбить с толку фашистов и спасти свой отряд, на задание отправляется молодой партизан Шурка...-Качество видео: TVRip
Контейнер: AVI
Видео кодек: XviD
Аудио кодек: AC3
Видео 1серия: 704x528; 1378 kbps; 25 fps; 0.148 bit/pixel
Видео 2серия: 704x528; 1409 kbps; 25 fps; 0.152 bit/pixel
Аудио: 128 kbps; 2 ch; 48 kHz
Cубтитры: отсутствуют
1 серия
Общее
Полное имя : E:\Torrent\Zdu_i_nadeus_[Pirat.ca].torrent\1 серия.avi
Формат : AVI
Формат/Информация : Audio Video Interleave
Размер файла : 703 Мбайт
Продолжительность : 1 ч. 4 м.
Общий поток : 1517 Кбит/сек
Видео
Идентификатор : 0
Формат : MPEG-4 Visual
Профиль формата : [email protected]
Параметр BVOP формата : Нет
Параметр QPel формата : Нет
Параметр GMC формата : Без точки перехода
Параметр матрицы формата : Default (H.263)
Идентификатор кодека : XVID
Идентификатор кодека/Подсказка : XviD
Продолжительность : 1 ч. 4 м.
Продолжительность оригинала : 1 ч. 4 м.
Битрейт : 1378 Кбит/сек
Ширина : 704 пикселя
Высота : 528 пикселей
Соотношение сторон : 4:3
Частота кадров : 25,000 кадров/сек
Цветовое пространство : YUV
Субдискретизация насыщенности : 4:2:0
Битовая глубина : 8 бит
Тип развёртки : Прогрессивная
Метод сжатия : С потерями
Бит/(Пиксели*Кадры) : 0.148
Размер потока : 638 Мбайт (91%)
Библиотека кодирования : XviD 1.1.2 (UTC 2006-11-01)
Аудио
Идентификатор : 1
Формат : AC-3
Формат/Информация : Audio Coding 3
Расширение режима : CM (complete main)
Параметр Endianness формата : Big
Идентификатор кодека : 2000
Продолжительность : 1 ч. 4 м.
Вид битрейта : Постоянный
Битрейт : 128 Кбит/сек
Каналы : 2 канала
Расположение каналов : Front: L R
Частота : 48,0 КГц
Битовая глубина : 16 бит
Метод сжатия : С потерями
Размер потока : 59,3 Мбайт (8%)
Выравнивание : Соединение по промежуткам
Продолжительность промежутка : 32 мс. (0,80 видеокадр)
Время предзагрузки промежутка : 128 мс.
2 серия
Общее
Полное имя : E:\Torrent\Zdu_i_nadeus_[Pirat.ca].torrent\2 серия.avi
Формат : AVI
Формат/Информация : Audio Video Interleave
Размер файла : 702 Мбайт
Продолжительность : 1 ч. 3 м.
Общий поток : 1548 Кбит/сек
Видео
Идентификатор : 0
Формат : MPEG-4 Visual
Профиль формата : [email protected]
Параметр BVOP формата : Нет
Параметр QPel формата : Нет
Параметр GMC формата : Без точки перехода
Параметр матрицы формата : Default (H.263)
Идентификатор кодека : XVID
Идентификатор кодека/Подсказка : XviD
Продолжительность : 1 ч. 3 м.
Продолжительность оригинала : 1 ч. 3 м.
Битрейт : 1409 Кбит/сек
Ширина : 704 пикселя
Высота : 528 пикселей
Соотношение сторон : 4:3
Частота кадров : 25,000 кадров/сек
Цветовое пространство : YUV
Субдискретизация насыщенности : 4:2:0
Битовая глубина : 8 бит
Тип развёртки : Прогрессивная
Метод сжатия : С потерями
Бит/(Пиксели*Кадры) : 0.152
Размер потока : 639 Мбайт (91%)
Библиотека кодирования : XviD 1.1.2 (UTC 2006-11-01)
Аудио
Идентификатор : 1
Формат : AC-3
Формат/Информация : Audio Coding 3
Расширение режима : CM (complete main)
Параметр Endianness формата : Big
Идентификатор кодека : 2000
Продолжительность : 1 ч. 3 м.
Вид битрейта : Постоянный
Битрейт : 128 Кбит/сек
Каналы : 2 канала
Расположение каналов : Front: L R
Частота : 48,0 КГц
Битовая глубина : 16 бит
Метод сжатия : С потерями
Размер потока : 58,0 Мбайт (8%)
Выравнивание : Соединение по промежуткам
Продолжительность промежутка : 32 мс. (0,80 видеокадр)
Раздача с 14.00 до 2.30 (время московское)
Download / Скачать

Хотите скачать бесплатно? Зарегистрируйтесь на сайте (ссылка на регистрацию). Pirat.ca - самый быстрый торрент трекер в рунете!

Как скачивать  ·   Что такое торрент  ·   Рейтинг и ограничения

vovan200976

Флибустьер

Пост 04-Апр-2014 15:35 (спустя 46 минут)

[Q] 

Спасибо , как раз хочу посмотреть про войну , да и не видел кажется этого фильма!! Боболее бы выкладывали фильмы с такой тематикой!!! Лови бочку
[Профиль]  [ЛС] 

Мархуз ®

4507

Пост 04-Апр-2014 16:01 (спустя 25 минут)

[Q] 

vovan200976, по мере сил и возможностей буду выкладывать. cx А за бочку- спасибо aa

_________________

Счастье для всех, даром, и пусть никто не уйдёт обиженный
[Профиль]  [ЛС] 

Пост 04-Апр-2014 16:11 (спустя 10 минут)

Топик был перенесен из форума Наше кино (Трюм) в форум Советское кино
kugesan
 
Показать сообщения:    
Ответить на тему

Текущее время: Сегодня 12:48

Часовой пояс: GMT + 4



Вы не можете начинать темы
Вы не можете отвечать на сообщения
Вы не можете редактировать свои сообщения
Вы не можете удалять свои сообщения
Вы не можете голосовать в опросах
Вы не можете прикреплять файлы к сообщениям
Вы не можете скачивать файлы

▼ Вниз