ML
     
  Уважаемый Гость!
Вы можете поддержать проект и зарегистрироваться у наших партнеров - онлайн-стратегия MyLands. При регистрации в игре Вы получите код, который сможете активировать после регистрации на pirat.ca и получить 1000 дублонов.

Ваш код:
c89b4b6523eaac3173e9a9c062ac1a19db575961
 
     

Серёжа (Георгий Данелия, Игорь Таланкин) [1960 г., семейный, DVDRip]

Ответить на тему
 
Автор
Сообщение

Пост 04-Апр-2014 17:25

[Q] 

Мархуз

-Серёжа-- Производство: СССР, Мосфильм
Режиссер: Георгий Данелия, Игорь Таланкин
Жанр: семейный
Год выпуска: 1960 г.
Продолжительность: 01:15:37
В ролях: Боря Бархатов, Сергей Бондарчук, Ирина Скобцева, Наташа Чечеткина, Сережа Метелицын, Юра Козлов, Николай Сергеев, Любовь Соколова, Василий Меркурьев, Александра Панова, Павел Винник, Алеша Доценко, Кларина Фролова, Валентин Брылеев, Вячеслав Бровкин-Описание: Мама пятилетнего Серёжи вышла замуж - и теперь у него появился новый папа и лучший друг Коростелев, который помогает ему решать маленькие, но очень важные проблемы...-Качество видео: DVDRip
Контейнер: AVI
Видео кодек: XviD
Аудио кодек: AC3
Видео: 704x528; 2387 kbps; 257 fps; bit/pixel
Аудио: 192 kbps; 2 ch; 48 kHz
Cубтитры: отсутствуют
1960 - Лучший фильм года по опросу журнала "Советский экран".
1960 - Большой приз "Хрустальный глобус" на МКФ в Карловых-Варах
1960 - Первая премия на Международной встрече фильмов для юношества в Канне
1960 - Приз "Золотая головка Паленке" на Межд. смотре фестивальных фильмов в Акапулько
1961 - Стратфорд (Stratford Shakespeare Festival)
1961 - Ванкувер (Vancouver International Film Festival)
1961 - Салоники (International Thessaloniki Film Festival)
Общее
Полное имя : E:\Torrent\Sereza_[Pirat.ca].torrent.avi
Формат : AVI
Формат/Информация : Audio Video Interleave
Размер файла : 1,37 Гбайт
Продолжительность : 1 ч. 15 м.
Общий поток : 2589 Кбит/сек
Программа кодирования : VirtualDubModRus 1.5.10.2 (build 2542/release)
Библиотека кодирования : VirtualDubMod build 2542/release
Видео
Идентификатор : 0
Формат : MPEG-4 Visual
Профиль формата : Advanced [email protected]
Параметр BVOP формата : 2
Параметр QPel формата : Нет
Параметр GMC формата : Без точки перехода
Параметр матрицы формата : Default (MPEG)
Режим смешивания : Сжатый битовый поток
Идентификатор кодека : XVID
Идентификатор кодека/Подсказка : XviD
Продолжительность : 1 ч. 15 м.
Битрейт : 2387 Кбит/сек
Ширина : 704 пикселя
Высота : 528 пикселей
Соотношение сторон : 4:3
Частота кадров : 25,000 кадров/сек
Цветовое пространство : YUV
Субдискретизация насыщенности : 4:2:0
Битовая глубина : 8 бит
Тип развёртки : Прогрессивная
Метод сжатия : С потерями
Бит/(Пиксели*Кадры) : 0.257
Размер потока : 1,26 Гбайт (92%)
Библиотека кодирования : XviD 1.2.1 (UTC 2008-12-04)
Аудио
Идентификатор : 1
Формат : AC-3
Формат/Информация : Audio Coding 3
Расширение режима : CM (complete main)
Параметр Endianness формата : Big
Идентификатор кодека : 2000
Продолжительность : 1 ч. 15 м.
Вид битрейта : Постоянный
Битрейт : 192 Кбит/сек
Каналы : 2 канала
Расположение каналов : Front: L R
Частота : 48,0 КГц
Битовая глубина : 16 бит
Метод сжатия : С потерями
Размер потока : 104 Мбайт (7%)
Выравнивание : Соединение по промежуткам
Продолжительность промежутка : 40 мс. (1,00 видеокадр)
Время предзагрузки промежутка : 512 мс.
Раздача с 14.00 до 2.30 (время московское)
Download / Скачать

Хотите скачать бесплатно? Зарегистрируйтесь на сайте (ссылка на регистрацию). Pirat.ca - самый быстрый торрент трекер в рунете!

Как скачивать  ·   Что такое торрент  ·   Рейтинг и ограничения

Пост 04-Апр-2014 17:39 (спустя 13 минут)

Топик был перенесен из форума Наше кино (Трюм) в форум Советское кино
kugesan
 
Показать сообщения:    
Ответить на тему

Текущее время: Сегодня 22:32

Часовой пояс: GMT + 4



Вы не можете начинать темы
Вы не можете отвечать на сообщения
Вы не можете редактировать свои сообщения
Вы не можете удалять свои сообщения
Вы не можете голосовать в опросах
Вы не можете прикреплять файлы к сообщениям
Вы не можете скачивать файлы

▼ Вниз