ML
     
  Уважаемый Гость!
Вы можете поддержать проект и зарегистрироваться у наших партнеров - онлайн-стратегия MyLands. При регистрации в игре Вы получите код, который сможете активировать после регистрации на pirat.ca и получить 1000 дублонов.

Ваш код:
c89b4b6523eaac3173e9a9c062ac1a19db575961
 
     

Мальчишку звали «Капитаном» (Марк Толмачев) [1973 г., военный, TVRip]

Ответить на тему
 
Автор
Сообщение

Пост 05-Апр-2014 16:37

[Q] 

Мархуз

-Мальчишку звали «Капитаном» -- Производство: СССР, Одесская киностудия
Режиссер: Марк Толмачев
Жанр: военный
Год выпуска: 1973 г.
Продолжительность: 01:22:54
В ролях: Борис Зайцев, Анатолий Грачёв, Людмила Цветкова, Александр Данилочкин, Игорь Ирич, Алексей Рымарь, Валерий Фетисов, Галина Сулима, Герберт Дмитриев,Альфред Зиновьев, Арнис Лицитис, Виталий Леонов, Вячеслав Жариков, Фёдор Одиноков-Описание: Он мечтал стать военным моряком, а стал разведчиком партизанского отряда во временно оккупированной фашистами Одессе. По доносу предателя, Яша был схвачен немцами и расстрелян.-Качество видео: TVRip
Контейнер: AVI
Видео кодек: DivX
Аудио кодек: MP3
Видео: 704x320; 1043 kbps; 25 fps; 0.185 bit/pixel
Аудио: 128 kbps; 2 ch; 48 kHz
Cубтитры: отсутствуют
Общее
Полное имя : E:\Torrent\Malchishku_zvali_Kapitanom_[Pirat.ca].torrent.avi
Формат : AVI
Формат/Информация : Audio Video Interleave
Размер файла : 700 Мбайт
Продолжительность : 1 ч. 22 м.
Общий поток : 1181 Кбит/сек
Программа кодирования : VirtualDubModRus 1.5.10.2 (build 2540/release)
Библиотека кодирования : VirtualDubMod build 2540/release
Видео
Идентификатор : 0
Формат : MPEG-4 Visual
Профиль формата : Advanced [email protected]
Параметр BVOP формата : 2
Параметр QPel формата : Нет
Параметр GMC формата : Без точки перехода
Параметр матрицы формата : Default (MPEG)
Идентификатор кодека : DX50
Идентификатор кодека/Подсказка : DivX 5
Продолжительность : 1 ч. 22 м.
Битрейт : 1043 Кбит/сек
Ширина : 704 пикселя
Высота : 320 пикселей
Соотношение сторон : 2,2:1
Частота кадров : 25,000 кадров/сек
Цветовое пространство : YUV
Субдискретизация насыщенности : 4:2:0
Битовая глубина : 8 бит
Тип развёртки : Прогрессивная
Метод сжатия : С потерями
Бит/(Пиксели*Кадры) : 0.185
Размер потока : 618 Мбайт (88%)
Библиотека кодирования : XviD 1.2.0.dev47 (UTC 2006-11-01)
Аудио
Идентификатор : 1
Формат : MPEG Audio
Версия формата : Version 1
Профиль формата : Layer 3
Режим : Joint stereo
Идентификатор кодека : 55
Идентификатор кодека/Подсказка : MP3
Продолжительность : 1 ч. 22 м.
Вид битрейта : Постоянный
Битрейт : 128 Кбит/сек
Каналы : 2 канала
Частота : 48,0 КГц
Метод сжатия : С потерями
Размер потока : 75,9 Мбайт (11%)
Выравнивание : Соединение по промежуткам
Продолжительность промежутка : 40 мс. (1,00 видеокадр)
Время предзагрузки промежутка : 504 мс.
Раздача с 14.00 до 2.30 (время московское)
Download / Скачать

Хотите скачать бесплатно? Зарегистрируйтесь на сайте (ссылка на регистрацию). Pirat.ca - самый быстрый торрент трекер в рунете!

Как скачивать  ·   Что такое торрент  ·   Рейтинг и ограничения

Пост 05-Апр-2014 17:46 (спустя 1 час 8 минут)

Топик был перенесен из форума Наше кино (Трюм) в форум Советское кино
aleksey99
 

akva

Лоцман

Пост 05-Апр-2014 18:34 (спустя 1 час 56 минут)

[Q] 

ищу — Принц и нищий и Кащей Бессмертный 1943-44 годов!
[Профиль]  [ЛС] 

Мархуз ®

4507

Пост 05-Апр-2014 21:56 (спустя 3 часа)

[Q] 

akva, есть такие фильмы, сейчас выложу. cx

_________________

Счастье для всех, даром, и пусть никто не уйдёт обиженный
[Профиль]  [ЛС] 
Показать сообщения:    
Ответить на тему

Текущее время: Сегодня 22:32

Часовой пояс: GMT + 4



Вы не можете начинать темы
Вы не можете отвечать на сообщения
Вы не можете редактировать свои сообщения
Вы не можете удалять свои сообщения
Вы не можете голосовать в опросах
Вы не можете прикреплять файлы к сообщениям
Вы не можете скачивать файлы

▼ Вниз