ML
     
  Уважаемый Гость!
Вы можете поддержать проект и зарегистрироваться у наших партнеров - онлайн-стратегия MyLands. При регистрации в игре Вы получите код, который сможете активировать после регистрации на pirat.ca и получить 1000 дублонов.

Ваш код:
fcd618d94adc1456bccbde5047c9cd0930e4ae4d
 
     

Пятнадцатилетний капитан (Василий Журавлёв) [1945 г., приключения, DVDRip]

Ответить на тему
 
Автор
Сообщение

Пост 05-Апр-2014 17:58

[Q] 

Мархуз

-Пятнадцатилетний капитан-- Производство: СССР, Союздетфильм
Режиссер: Василий Журавлёв
Жанр: приключения
Год выпуска: 1945 г.
Продолжительность: 01:19:29
В ролях: Всеволод Ларионов, Александр Хвыля, Михаил Астангов, Елена Измайлова, Павел Суханов, Виктор Кулаков, Вейланд Родд, Коретти Арле-Тиц, Осип Абдулов,Сергей Ценин, Азарик Мессерер-Описание: годам опытным мореплавателем, "правой рукой" капитана Гуля. В погоне за неожиданно оказавшейся по курсу судна желанной добычей - крупным полосатиком - капитан Гуль и вся наиболее опытная часть команды погибает. Дик принимает обязанности капитана на себя. Из-за предательства судового кока Негоро вместо Америки корабль приплывает к берегам Анголы, где корабль выбрасывает на берег. Дику Сэнду и его друзьям приходится вступить в схватку с бандой злодеев-работорговцев, спасти команду и пассажиров, а также отомстить злодеям.-Качество видео: DVDRip
Контейнер: AVI
Видео кодек: XviD
Аудио кодек: AC3
Видео: 688x512; 1702 kbps; fps; 0.193 bit/pixel
Аудио: 256 kbps; 2 ch; 48 kHz
Cубтитры: отсутствуют
Общее
Полное имя : E:\Torrent\Pyatnadtsatiletni_kapitan_[Pirat.ca].torrent.avi
Формат : AVI
Формат/Информация : Audio Video Interleave
Размер файла : 1,09 Гбайт
Продолжительность : 1 ч. 19 м.
Общий поток : 1968 Кбит/сек
Видео
Идентификатор : 0
Формат : MPEG-4 Visual
Профиль формата : [email protected]
Параметр BVOP формата : Нет
Параметр QPel формата : Нет
Параметр GMC формата : Без точки перехода
Параметр матрицы формата : Default (H.263)
Идентификатор кодека : XVID
Идентификатор кодека/Подсказка : XviD
Продолжительность : 1 ч. 19 м.
Продолжительность оригинала : 1 ч. 19 м.
Битрейт : 1702 Кбит/сек
Ширина : 688 пикселей
Высота : 512 пикселей
Соотношение сторон : 4:3
Частота кадров : 25,000 кадров/сек
Цветовое пространство : YUV
Субдискретизация насыщенности : 4:2:0
Битовая глубина : 8 бит
Тип развёртки : Прогрессивная
Метод сжатия : С потерями
Бит/(Пиксели*Кадры) : 0.193
Размер потока : 968 Мбайт (86%)
Библиотека кодирования : XviD 1.1.2 (UTC 2006-11-01)
Аудио
Идентификатор : 1
Формат : AC-3
Формат/Информация : Audio Coding 3
Расширение режима : CM (complete main)
Параметр Endianness формата : Big
Идентификатор кодека : 2000
Продолжительность : 1 ч. 19 м.
Вид битрейта : Постоянный
Битрейт : 256 Кбит/сек
Каналы : 2 канала
Расположение каналов : Front: L R
Частота : 48,0 КГц
Битовая глубина : 16 бит
Метод сжатия : С потерями
Размер потока : 145 Мбайт (13%)
Выравнивание : Соединение по промежуткам
Продолжительность промежутка : 32 мс. (0,80 видеокадр)
Время предзагрузки промежутка : 352 мс.
Раздача с 14.00 до 2.30 (время московское)
Download / Скачать

Хотите скачать бесплатно? Зарегистрируйтесь на сайте (ссылка на регистрацию). Pirat.ca - самый быстрый торрент трекер в рунете!

Как скачивать  ·   Что такое торрент  ·   Рейтинг и ограничения

Пост 05-Апр-2014 18:23 (спустя 25 минут)

Топик был перенесен из форума Наше кино (Трюм) в форум Советское кино
aleksey99
 

akva

Лоцман

Пост 05-Апр-2014 18:31 (спустя 33 минуты)

[Q] 

Что-то не качает...
Добавлено спустя 2 минуты 59 секунд:
А случайно нет ли отреставрированных: 1943 — Принц и нищий и 1944 — Кащей Бессмертный?
[Профиль]  [ЛС] 

Мархуз ®

4507

Пост 05-Апр-2014 21:55 (спустя 3 часа)

[Q] 

akva, уже выложил. качай на здоровье. aa

_________________

Счастье для всех, даром, и пусть никто не уйдёт обиженный
[Профиль]  [ЛС] 

vtripe

Корсар

36

Пост 05-Ноя-2014 14:17 (спустя 6 месяцев 29 дней)

[Q] 

спасибо Автору респект!!!
[Профиль]  [ЛС] 

берлин

Гроза морей

Пост 07-Ноя-2014 09:44 (спустя 1 день 19 часов)

[Q] 

Огромное спасибо!!!
[Профиль]  [ЛС] 
Показать сообщения:    
Ответить на тему

Текущее время: Сегодня 12:53

Часовой пояс: GMT + 4



Вы не можете начинать темы
Вы не можете отвечать на сообщения
Вы не можете редактировать свои сообщения
Вы не можете удалять свои сообщения
Вы не можете голосовать в опросах
Вы не можете прикреплять файлы к сообщениям
Вы не можете скачивать файлы

▼ Вниз