ML
     
  Уважаемый Гость!
Вы можете поддержать проект и зарегистрироваться у наших партнеров - онлайн-стратегия MyLands. При регистрации в игре Вы получите код, который сможете активировать после регистрации на pirat.ca и получить 1000 дублонов.

Ваш код:
ba41f7961e0b4717aed6a401d955262223b8f6c4
 
     

Караул (Александр Рогожкин) [1989 г., драма, DVDRip]

Ответить на тему
 
Автор
Сообщение

Пост 17-Апр-2014 15:28

[Q] 

Мархуз

-Караул-- Производство: СССР. Мосфильм
Режиссер: Александр Рогожкин
Жанр: драма
Год выпуска: 1989 г.
Продолжительность: 01:36:46
В ролях: Алексей Булдаков, Сергей Куприянов, Алексей Полуян, Александр Смирнов, Тарас Денисенко, Василий Домрачев, Андрей Зерцалов, Дмитрий Иосифов, Валерий Кравченко, Алексей Зайцев, Ринат Ибрагимов, Мария Белкина, Павел Корнаков, Никита Михайловский, Владимир Юрьев, Михаил Кирилюк, Иван Лощилин-Описание: Конвой под командованием бывалого прапорщика этапирует осужденных в железнодорожном вагоне. Среди солдат-конвоиров царствуют неуставные взаимоотношения, сравнимые разве что с волчьими законами уголовного мира. Все неумолимо ведет к кровавой развязке. Один из караульных расстреливает своих сослуживцев. На него начинается облава…-Качество видео: DVDRip
Контейнер: AVI
Видео кодек: XviD
Аудио кодек: AC3
Видео: 720x544; 1823 kbps; 25 fps; 0.186 bit/pixel
Аудио: 192 kbps; 2 ch; 48 kHz
Cубтитры: отсутствуют
Общее
Полное имя : E:\Torrent\Karaul_[Pirat.ca].torrent.avi
Формат : AVI
Формат/Информация : Audio Video Interleave
Размер файла : 1,37 Гбайт
Продолжительность : 1 ч. 36 м.
Общий поток : 2022 Кбит/сек
Режиссёр : vicpryl
Программа кодирования : VirtualDubMod 1.5.10.2 (build 2542/release)
Примечание : Karaul.RUS.DVDRip.vicpryl.avi
Видео
Идентификатор : 0
Формат : MPEG-4 Visual
Профиль формата : Advanced [email protected]
Параметр BVOP формата : 1
Параметр QPel формата : Нет
Параметр GMC формата : Без точки перехода
Параметр матрицы формата : Выборочная
Идентификатор кодека : XVID
Идентификатор кодека/Подсказка : XviD
Продолжительность : 1 ч. 36 м.
Битрейт : 1823 Кбит/сек
Ширина : 720 пикселей
Высота : 544 пикселя
Соотношение сторон : 4:3
Частота кадров : 25,000 кадров/сек
Цветовое пространство : YUV
Субдискретизация насыщенности : 4:2:0
Битовая глубина : 8 бит
Тип развёртки : Прогрессивная
Метод сжатия : С потерями
Бит/(Пиксели*Кадры) : 0.186
Размер потока : 1,23 Гбайт (90%)
Библиотека кодирования : XviD 1.1.2 (UTC 2006-11-01)
Аудио
Идентификатор : 1
Формат : AC-3
Формат/Информация : Audio Coding 3
Расширение режима : CM (complete main)
Параметр Endianness формата : Big
Идентификатор кодека : 2000
Продолжительность : 1 ч. 36 м.
Вид битрейта : Постоянный
Битрейт : 192 Кбит/сек
Каналы : 2 канала
Расположение каналов : Front: L R
Частота : 48,0 КГц
Битовая глубина : 16 бит
Метод сжатия : С потерями
Размер потока : 133 Мбайт (9%)
Выравнивание : Разделение по промежуткам
Продолжительность промежутка : 96 мс. (2,40 видеокадра)
Время предзагрузки промежутка : 96 мс.
Раздача с 14.00 до 2.30 (время московское)
Download / Скачать

Хотите скачать бесплатно? Зарегистрируйтесь на сайте (ссылка на регистрацию). Pirat.ca - самый быстрый торрент трекер в рунете!

Как скачивать  ·   Что такое торрент  ·   Рейтинг и ограничения

Пост 17-Апр-2014 15:33 (спустя 4 минуты)

Топик был перенесен из форума Наше кино (Трюм) в форум Советское кино
kugesan
 
Показать сообщения:    
Ответить на тему

Текущее время: Сегодня 14:47

Часовой пояс: GMT + 4



Вы не можете начинать темы
Вы не можете отвечать на сообщения
Вы не можете редактировать свои сообщения
Вы не можете удалять свои сообщения
Вы не можете голосовать в опросах
Вы не можете прикреплять файлы к сообщениям
Вы не можете скачивать файлы

▼ Вниз