ML
     
  Уважаемый Гость!
Вы можете поддержать проект и зарегистрироваться у наших партнеров - онлайн-стратегия MyLands. При регистрации в игре Вы получите код, который сможете активировать после регистрации на pirat.ca и получить 1000 дублонов.

Ваш код:
500cb7bd8d2cec9a8aba647a87ce41c4b76f06bd
 
     

Кислородный голод (Андрей Дончик) [1991 г., драма, TVRip]

Ответить на тему
 
Автор
Сообщение

Пост 17-Апр-2014 15:43

[Q] 

Мархуз

-Кислородный голод-- Производство: СССР
Режиссер: Андрей Дончик
Жанр: драма
Год выпуска: 1991 г.
Продолжительность: 01:36:00
В ролях: Тарас Денисенко, Олег Маслеников, Виктор Степанов, Алексей Горбунов, Александр Миронов, Мухамед Рахимов, Владимир Станкевич, Илья Сенацкий, Берик Сабиржанов, Александр Немченко, Владимир Ямненко-Описание: В обычной советской воинской части "деды", зачитав приказ о дембеле, решили поизмываться над "молодыми". Все "молодые" покорно терпели, а рядовой Билаг терпеть не стал, на что один из "дедов" сказал: "Я тебя трогать не буду, такие, как ты, у нас здесь сами вешаются". Фильм современный - мат имеется, а проблемы все прежние, как, наверное, и при царе-батюшке. Страшная своей обыденностью драма, нет "туфты", снято, как с натуры, а диалоги - просто записаны "скрытым микрофоном".-Качество видео: TVRip
Контейнер: AVI
Видео кодек: DivX
Аудио кодек: MP3
Видео: 512x384; 900 kbps; 25 fps; 0.183 bit/pixel
Аудио: 128 kbps; 2 ch; 44.1 kHz
Cубтитры: отсутствуют
Общее
Полное имя : E:\Torrent\Kislorodniy_golod_[Pirat.ca].torrent.avi
Формат : AVI
Формат/Информация : Audio Video Interleave
Размер файла : 700 Мбайт
Продолжительность : 1 ч. 36 м.
Режим общего битрейта : Переменный
Общий поток : 1018 Кбит/сек
Видео
Идентификатор : 0
Формат : MPEG-4 Visual
Параметр BVOP формата : 1
Параметр QPel формата : Нет
Параметр GMC формата : Без точки перехода
Параметр матрицы формата : Default (H.263)
Режим смешивания : Сжатый битовый поток
Идентификатор кодека : DX50
Идентификатор кодека/Подсказка : DivX 5
Продолжительность : 1 ч. 36 м.
Битрейт : 900 Кбит/сек
Ширина : 512 пикселей
Высота : 384 пикселя
Соотношение сторон : 4:3
Частота кадров : 25,000 кадров/сек
Цветовое пространство : YUV
Субдискретизация насыщенности : 4:2:0
Битовая глубина : 8 бит
Тип развёртки : Прогрессивная
Метод сжатия : С потерями
Бит/(Пиксели*Кадры) : 0.183
Размер потока : 619 Мбайт (88%)
Заголовок : Video
Библиотека кодирования : DivX 5.2.1 Alpha (UTC 2004-09-08)
Аудио
Идентификатор : 1
Формат : MPEG Audio
Версия формата : Version 1
Профиль формата : Layer 3
Режим : Joint stereo
Расширение режима : MS Stereo
Идентификатор кодека : 55
Идентификатор кодека/Подсказка : MP3
Продолжительность : 1 ч. 36 м.
Вид битрейта : Переменный
Битрейт : 128 Кбит/сек
Каналы : 2 канала
Частота : 44,1 КГц
Метод сжатия : С потерями
Размер потока : 72,4 Мбайт (10%)
Выравнивание : Соединение по промежуткам
Продолжительность промежутка : 26 мс. (0,65 видеокадр)
Время предзагрузки промежутка : 355 мс.
Заголовок : Audio
Раздача с 14.00 до 2.30 (время московское)
Download / Скачать

Хотите скачать бесплатно? Зарегистрируйтесь на сайте (ссылка на регистрацию). Pirat.ca - самый быстрый торрент трекер в рунете!

Как скачивать  ·   Что такое торрент  ·   Рейтинг и ограничения

Пост 17-Апр-2014 18:40 (спустя 2 часа 57 минут)

Топик был перенесен из форума Наше кино (Трюм) в форум Советское кино
erchine
 
Показать сообщения:    
Ответить на тему

Текущее время: Сегодня 01:49

Часовой пояс: GMT + 4



Вы не можете начинать темы
Вы не можете отвечать на сообщения
Вы не можете редактировать свои сообщения
Вы не можете удалять свои сообщения
Вы не можете голосовать в опросах
Вы не можете прикреплять файлы к сообщениям
Вы не можете скачивать файлы

▼ Вниз