ML
     
  Уважаемый Гость!
Вы можете поддержать проект и зарегистрироваться у наших партнеров - онлайн-стратегия MyLands. При регистрации в игре Вы получите код, который сможете активировать после регистрации на pirat.ca и получить 1000 дублонов.

Ваш код:
fe4e93b754a7c2b306fcfc8bc32532ea1cf59d3b
 
     

Путёвка в жизнь (Николай Экк) [1931 г., драма, DVDRip]

Ответить на тему
 
Автор
Сообщение

Пост 28-Апр-2014 14:39

[Q] 

Мархуз

-Путёвка в жизнь-- Производство: СССР. Межрабпомфильм
Режиссер: Николай Экк
Жанр: драма
Год выпуска: 1931 г.
Продолжительность: 01:46:27
В ролях: Михаил Жаров, Йыван Кырля, Николай Баталов, Мария Гонта, Владимир Весновский, Регина Янушкевич, Виктор Лазарев, Александр Новиков, Владимир Уральский-Описание: Драматическая история о перевоспитании подростков в трудовой коммуне в первые годы советской власти. Первый советский звуковой фильм.-Качество видео: DVDRip
Контейнер: AVI
Видео кодек: XviD
Аудио кодек: AC3
Видео: 720x544; 1574 kbps; 25 fps; 0.161 bit/pixel
Аудио: 256 kbps; 2 ch; 48 kHz
Cубтитры: отсутствуют
General
Complete name : E:\Torrent\Putevka_v_zhizn_[Pirat.ca].torrent.avi
Format : AVI
Format/Info : Audio Video Interleave
File size : 1.37 GiB
Duration : 1h 46mn
Overall bit rate : 1 837 Kbps
Writing application : VirtualDubMod 1.5.4.1 (build 2178/release)
Writing library : VirtualDubMod build 2178/release
Video
ID : 0
Format : MPEG-4 Visual
Format profile : Advanced [email protected]
Format settings, BVOP : 1
Format settings, QPel : No
Format settings, GMC : No warppoints
Format settings, Matrix : Custom
Codec ID : XVID
Codec ID/Hint : XviD
Duration : 1h 46mn
Bit rate : 1 574 Kbps
Width : 720 pixels
Height : 544 pixels
Display aspect ratio : 4:3
Frame rate : 25.000 fps
Color space : YUV
Chroma subsampling : 4:2:0
Bit depth : 8 bits
Scan type : Progressive
Compression mode : Lossy
Bits/(Pixel*Frame) : 0.161
Stream size : 1.17 GiB (86%)
Writing library : XviD 1.1.2 (UTC 2006-11-01)
Audio
ID : 1
Format : AC-3
Format/Info : Audio Coding 3
Mode extension : CM (complete main)
Format settings, Endianness : Big
Codec ID : 2000
Duration : 1h 46mn
Bit rate mode : Constant
Bit rate : 256 Kbps
Channel(s) : 2 channels
Channel positions : Front: L R
Sampling rate : 48.0 KHz
Bit depth : 16 bits
Compression mode : Lossy
Stream size : 195 MiB (14%)
Alignment : Split accross interleaves
Interleave, duration : 96 ms (2.40 video frames)
Interleave, preload duration : 96 ms
Language : Russian
Раздача с 14.00 до 2.30 (время московское)
Download / Скачать

Хотите скачать бесплатно? Зарегистрируйтесь на сайте (ссылка на регистрацию). Pirat.ca - самый быстрый торрент трекер в рунете!

Как скачивать  ·   Что такое торрент  ·   Рейтинг и ограничения

СерКат

Корсар

Пост 28-Апр-2014 16:54 (спустя 2 часа 15 минут)

[Q] 

Спасибо,надо глянуть,несмотрел
[Профиль]  [ЛС] 

Пост 28-Апр-2014 16:59 (спустя 4 минуты)

Топик был перенесен из форума Наше кино (Трюм) в форум Советское кино
kugesan
 

Мархуз ®

4505

Пост 28-Апр-2014 22:40 (спустя 5 часов)

[Q] 

СерКат, рад что смог исправить этот промах aa

_________________

Счастье для всех, даром, и пусть никто не уйдёт обиженный
[Профиль]  [ЛС] 

iohio

Пост 18-Июн-2014 10:21 (спустя 1 месяц 19 дней)

[Q] 

Хороший, добрый фильм
[Профиль]  [ЛС] 
Показать сообщения:    
Ответить на тему

Текущее время: Сегодня 14:27

Часовой пояс: GMT + 4



Вы не можете начинать темы
Вы не можете отвечать на сообщения
Вы не можете редактировать свои сообщения
Вы не можете удалять свои сообщения
Вы не можете голосовать в опросах
Вы не можете прикреплять файлы к сообщениям
Вы не можете скачивать файлы

▼ Вниз