ML
     
  Уважаемый Гость!
Вы можете поддержать проект и зарегистрироваться у наших партнеров - онлайн-стратегия MyLands. При регистрации в игре Вы получите код, который сможете активировать после регистрации на pirat.ca и получить 1000 дублонов.

Ваш код:
5af7de75d3db09b6a37bc8bab71b0e87ccde73d6
 
     

Беда (Динара Асанова) [1977 г., драма, DVDRip]

Ответить на тему
 
Автор
Сообщение

Пост 30-Апр-2014 14:50

[Q] 

Мархуз

-Беда-- Производство: СССР. Ленфильм
Режиссер: Динара Асанова
Жанр: драма
Год выпуска: 1977 г.
Продолжительность: 01:29:27
В ролях: Алексей Петренко, Елена Кузьмина, Лидия Федосеева-Шукшина, Георгий Бурков, Геннадий Дюдяев, Фёдор Одиноков, Мария Виноградова, Александр Анисимов, Игорь Ефимов, Ефим Каменецкий, Павел Кашлаков, Светлана Крючкова, Андрей Лавриков, Любовь Малиновская, Любовь Тищенко, Михаил Семёнов, Олег Хроменков, Галина Чигинская, Марина Левтова, Александр Богданов, Алексей Ванин, Нина Мамаева-Описание: В маленьком северном поселке живут Алевтина Ивановна, ее сын Славка - неплохой, работящий и добрый человек с молодой женой и ребенком. Жить бы да жить, да вот одна беда - любит Славка выпить. Постепенно втягиваясь в пьянство, теряет он работу, семью и, в конце концов, лезет ночью в сельпо и крадет бутылку водки. Потом при аресте оказывает сопротивление. Вот за это его и сажают...-Качество видео: DVDRip
Контейнер: AVI
Видео кодек: DivX
Аудио кодек: AC3
Видео: 720x320; 1990 kbps; 25 fps; 0.346 bit/pixel
Аудио: 192 kbps; 2 ch; 48 kHz
General
Complete name : E:\Torrent\Beda_[Pirat.ca].torrent.avi
Format : AVI
Format/Info : Audio Video Interleave
File size : 1.37 GiB
Duration : 1h 29mn
Overall bit rate : 2 189 Kbps
Writing application : VirtualDubMod 1.5.4.1 (build 2178/release)
Writing library : VirtualDubMod build 2178/release
Video
ID : 0
Format : MPEG-4 Visual
Format settings, BVOP : No
Format settings, QPel : No
Format settings, GMC : No warppoints
Format settings, Matrix : Default (H.263)
Codec ID : DX50
Codec ID/Hint : DivX 5
Duration : 1h 29mn
Bit rate : 1 990 Kbps
Width : 720 pixels
Height : 320 pixels
Display aspect ratio : 2.25:1
Frame rate : 25.000 fps
Color space : YUV
Chroma subsampling : 4:2:0
Bit depth : 8 bits
Scan type : Progressive
Compression mode : Lossy
Bits/(Pixel*Frame) : 0.346
Stream size : 1.24 GiB (91%)
Writing library : DivX 5.2.1 (WaffleDay) (UTC 2004-09-08)
Audio
ID : 1
Format : AC-3
Format/Info : Audio Coding 3
Mode extension : CM (complete main)
Format settings, Endianness : Big
Codec ID : 2000
Duration : 1h 29mn
Bit rate mode : Constant
Bit rate : 192 Kbps
Channel(s) : 2 channels
Channel positions : Front: L R
Sampling rate : 48.0 KHz
Bit depth : 16 bits
Compression mode : Lossy
Stream size : 123 MiB (9%)
Alignment : Split accross interleaves
Interleave, duration : 96 ms (2.40 video frames)
Interleave, preload duration : 96 ms
Раздача с 14.00 до 2.30 (время московское)
Download / Скачать

Хотите скачать бесплатно? Зарегистрируйтесь на сайте (ссылка на регистрацию). Pirat.ca - самый быстрый торрент трекер в рунете!

Как скачивать  ·   Что такое торрент  ·   Рейтинг и ограничения

Пост 30-Апр-2014 16:51 (спустя 2 часа)

Топик был перенесен из форума Наше кино (Трюм) в форум Советское кино
kugesan
 

ZhekasCat

Морской Волк

35

Пост 20-Фев-2016 02:42 (спустя 1 год 9 месяцев)

[Q] 

Хороший ,жизненный фильм. Спасибо!!!
[Профиль]  [ЛС] 

xzxscorpxzx

Флибустьер

Пост 23-Май-2016 00:45 (спустя 3 месяца 2 дня)

[Q] 

отличный фильм Спасибо!!!
[Профиль]  [ЛС] 
Показать сообщения:    
Ответить на тему

Текущее время: Сегодня 14:15

Часовой пояс: GMT + 4



Вы не можете начинать темы
Вы не можете отвечать на сообщения
Вы не можете редактировать свои сообщения
Вы не можете удалять свои сообщения
Вы не можете голосовать в опросах
Вы не можете прикреплять файлы к сообщениям
Вы не можете скачивать файлы

▼ Вниз