ML
     
  Уважаемый Гость!
Вы можете поддержать проект и зарегистрироваться у наших партнеров - онлайн-стратегия MyLands. При регистрации в игре Вы получите код, который сможете активировать после регистрации на pirat.ca и получить 1000 дублонов.

Ваш код:
0fcd44bd35319f69313aa6e53b31c51cbff1c942
 
     

День любви (Александр Полынников) [1990 г., боевик, DVDRip]

Ответить на тему
 
Автор
Сообщение

Пост 02-Май-2014 13:16

[Q] 

Мархуз

-День любви-- Производство: СССР, Одесская киностудия
Режиссер: Александр Полынников
Жанр: боевик
Год выпуска: 1990 г.
Продолжительность: 01:24:23
В ролях: Андрей Болтнев, Александр Гловяк, Сергей Газаров, Владимир Наумцев, Сергей Чернов, Анна Иваницкая, Андрей Гончар, Владимир Мышкин, Лев Перфилов, Андрей Смоляков, Татьяна Бедова, Анна Назарьева, Андрей Болтнев-Описание: Чтобы отвлечь милицию от крупного ограбления, глава преступной группировки задумал серию изнасилований, а время, когда они произойдут, цинично назвал "Днём любви". Мстя за девушку, ставшую одной из жертв этого дня, в схватку с бандитами вступает ее отец и отчим...-Качество видео: DVDRip
Контейнер: AVI
Видео кодек: XviD
Аудио кодек: AC3
Видео: 704x544; 2258 kbps; 25 fps; 0.236 bit/pixel
Аудио: 192 kbps; 2 ch; 48 kHz
Cубтитры: отсутствуют
General
Complete name : E:\Torrent\Den_lubvi_[Pirat.ca].torrent.avi
Format : AVI
Format/Info : Audio Video Interleave
File size : 1.45 GiB
Duration : 1h 24mn
Overall bit rate : 2 459 Kbps
Writing application : VirtualDubMod 1.5.10.2 (build 2540/release)
Writing library : VirtualDubMod build 2540/release
Video
ID : 0
Format : MPEG-4 Visual
Format profile : Advanced [email protected]
Format settings, BVOP : 1
Format settings, QPel : No
Format settings, GMC : No warppoints
Format settings, Matrix : Custom
Codec ID : XVID
Codec ID/Hint : XviD
Duration : 1h 24mn
Bit rate : 2 258 Kbps
Width : 704 pixels
Height : 544 pixels
Display aspect ratio : 1.294
Frame rate : 25.000 fps
Color space : YUV
Chroma subsampling : 4:2:0
Bit depth : 8 bits
Scan type : Progressive
Compression mode : Lossy
Bits/(Pixel*Frame) : 0.236
Stream size : 1.33 GiB (92%)
Writing library : XviD 1.2.1 (UTC 2008-12-04)
Audio
ID : 1
Format : AC-3
Format/Info : Audio Coding 3
Mode extension : CM (complete main)
Format settings, Endianness : Big
Codec ID : 2000
Duration : 1h 24mn
Bit rate mode : Constant
Bit rate : 192 Kbps
Channel(s) : 2 channels
Channel positions : Front: L R
Sampling rate : 48.0 KHz
Bit depth : 16 bits
Compression mode : Lossy
Stream size : 116 MiB (8%)
Alignment : Split accross interleaves
Interleave, duration : 40 ms (1.00 video frame)
Interleave, preload duration : 500 ms
Раздача с 14.00 до 2.30 (время московское)
Download / Скачать

Хотите скачать бесплатно? Зарегистрируйтесь на сайте (ссылка на регистрацию). Pirat.ca - самый быстрый торрент трекер в рунете!

Как скачивать  ·   Что такое торрент  ·   Рейтинг и ограничения

Пост 02-Май-2014 13:30 (спустя 13 минут)

Топик был перенесен из форума Наше кино (Трюм) в форум Советское кино
kugesan
 

pavlin2000

Штурман

Пост 14-Ноя-2016 18:48 (спустя 2 года 6 месяцев)

[Q] 

сцену-то на заводе они, наверное, под впечатлением от кобры придумывали ))
[Профиль]  [ЛС] 
Показать сообщения:    
Ответить на тему

Текущее время: Сегодня 02:13

Часовой пояс: GMT + 4



Вы не можете начинать темы
Вы не можете отвечать на сообщения
Вы не можете редактировать свои сообщения
Вы не можете удалять свои сообщения
Вы не можете голосовать в опросах
Вы не можете прикреплять файлы к сообщениям
Вы не можете скачивать файлы

▼ Вниз