ML
     
  Уважаемый Гость!
Вы можете поддержать проект и зарегистрироваться у наших партнеров - онлайн-стратегия MyLands. При регистрации в игре Вы получите код, который сможете активировать после регистрации на pirat.ca и получить 1000 дублонов.

Ваш код:
47bfc18b89c74e4ae0d974e9b6943639e2bff08e
 
     

Это было в разведке (Лев Мирский) [1968 г., ВОВ, драма, DVDRip]

Ответить на тему
 
Автор
Сообщение

Пост 04-Май-2014 17:22

[Q] 

cergo

Гроза морей

-Это было в разведке--

Производство: СССР, Киностудия им. М. Горького
Режиссер: Лев Мирский
Жанр: ВОВ, драма
Год выпуска: 1968 г.
Продолжительность: 01:28:17
Российская премьера: 14 мая 1969
В ролях: Виктор Жуков, Валерий Малышев, Владимир Грамматиков, Виктор Филиппов, Наталья Величко, Сергей Пожарский, Виктор Задубровский, Валерий Кузьмин, Виктор Шахов, Шавкат Газиев, Леонид Реутов, Станислав Симонов, Евгений Евстигнеев, Николай Волков мл.-Описание: О подвигах двенадцатилетнего мальчика-разведчика, героя Великой Отечественной войны. Фильм создан по реальным событиям из боевой биографии разведчика Александра Ивановича Колесникова. Юный Саша, как и герой фильма Вася Колосов, сбежал со своим другом в 1943 году на фронт. В отличие от прототипа, герой фильма - сирота. В эшелоне Вася знакомится с сержантом, который проявил участе к судьбе паренька. Сержант его привозит в танковую часть. Во избежания хлопот, связанных с появлением мальчугана, командир приказывает отправить парня в тыл. Но Вася сбегает от провожатых и даже умудряется в лесу обнаружить немецкого парашютиста. Получив медаль за поимку фашиста, Василий становится своим для танкистов. Впереди новые приключения: плен, чудесное спасение из лап врага и новая встреча с танкистами.-
Качество видео: DVDRip
Контейнер: AVI
Видео кодек: DivX
Аудио кодек: AC3
Видео: 720x384 (1.88:1), 25 fps, DivX Codec 5.2.1 alpha ~1799 kbps avg, 0.26 bit/pixel
Аудио: 48 kHz, AC3 Dolby Digital, 2/0 (L,R) ch, ~192 kbps
Cубтитры: отсутствуют
Общее
Полное имя : D:\Архив\Фильмы\Eto_bilo_v_razvedke.avi
Формат : AVI
Формат/Информация : Audio Video Interleave
Размер файла : 1,23 Гбайт
Продолжительность : 1 ч. 28 м.
Общий поток : 2002 Кбит/сек
Программа кодирования : VirtualDubModRus 1.5.10.2 (build 2542/release)
Библиотека кодирования : VirtualDubMod build 2542/release
Видео
Идентификатор : 0
Формат : MPEG-4 Visual
Параметр BVOP формата : 2
Параметр QPel формата : Нет
Параметр GMC формата : Без точки перехода
Параметр матрицы формата : Default (H.263)
Идентификатор кодека : DX50
Идентификатор кодека/Подсказка : DivX 5
Продолжительность : 1 ч. 28 м.
Битрейт : 1800 Кбит/сек
Ширина : 720 пикселей
Высота : 384 пикселя
Соотношение сторон : 1,85:1
Частота кадров : 25,000 кадров/сек
Цветовое пространство : YUV
Субдискретизация насыщенности : 4:2:0
Битовая глубина : 8 бит
Тип развёртки : Прогрессивная
Метод сжатия : С потерями
Бит/(Пиксели*Кадры) : 0.260
Размер потока : 1,11 Гбайт (90%)
Библиотека кодирования : DivX 1307m
Аудио
Идентификатор : 1
Формат : AC-3
Формат/Информация : Audio Coding 3
Расширение режима : CM (complete main)
Параметр Endianness формата : Big
Идентификатор кодека : 2000
Продолжительность : 1 ч. 28 м.
Вид битрейта : Постоянный
Битрейт : 192 Кбит/сек
Каналы : 2 канала
Расположение каналов : Front: L R
Частота : 48,0 КГц
Битовая глубина : 16 бит
Метод сжатия : С потерями
Размер потока : 121 Мбайт (10%)
Выравнивание : Соединение по промежуткам
Продолжительность промежутка : 40 мс. (1,00 видеокадр)
Время предзагрузки промежутка : 512 мс.
Download / Скачать

Хотите скачать бесплатно? Зарегистрируйтесь на сайте (ссылка на регистрацию). Pirat.ca - самый быстрый торрент трекер в рунете!

Как скачивать  ·   Что такое торрент  ·   Рейтинг и ограничения

Пост 04-Май-2014 20:25 (спустя 3 часа)

Топик был перенесен из форума Наше кино (Трюм) в форум Советское кино
erchine
 
Показать сообщения:    
Ответить на тему

Текущее время: Сегодня 06:59

Часовой пояс: GMT + 4



Вы не можете начинать темы
Вы не можете отвечать на сообщения
Вы не можете редактировать свои сообщения
Вы не можете удалять свои сообщения
Вы не можете голосовать в опросах
Вы не можете прикреплять файлы к сообщениям
Вы не можете скачивать файлы

▼ Вниз