ML
     
  Уважаемый Гость!
Вы можете поддержать проект и зарегистрироваться у наших партнеров - онлайн-стратегия MyLands. При регистрации в игре Вы получите код, который сможете активировать после регистрации на pirat.ca и получить 1000 дублонов.

Ваш код:
34514219cfad5497a1822ecc1269bea77988f9aa
 
     

Акция (Владимир Шамшурин) [1987 г., боевик, военный, DVDRip]

Ответить на тему
 
Автор
Сообщение

Пост 08-Май-2014 17:09

[Q] 

LPPI

-Акция- Производство: СССР, Мосфильм
Жанр: боевик, военный
Год выпуска: 1987 г.
Продолжительность: 01:26:25
Дата выхода DVD: 22 октября 2009, «Мастер Тэйп»-Режиссер: Владимир Шамшурин
В ролях: Борис Галкин, Георгий Юматов, Олег Стриженов, Александр Новиков (II), Артём Каминский, Борис Никифоров, Сергей Десницкий, Виталий Зикора, Александр Январёв, Владимир Мышкин, Евгений Дегтяренко, Надежда Матушкина, Николай Симкин, Виталий Яковлев, Виктор Рождественский, Екатерина Васильева, Андрей Карташов, Сергей Волкош, Юрий Михеенков-Описание: Лето 1943 года. Советскому командованию становится известно, что на оккупированной территории Украины действует специальная разведшкола по подготовке разведчиков и диверсантов, одним из руководителей и преподавателей которой работает предатель Родины, опытный разведчик Кареев. Для нейтрализации немецкой разведбазы было решено изъять её архив…-КиноПоиск-Качество видео: DVDRip
Контейнер: AVI
Видео кодек: DivX
Аудио кодек: AC3
Видео: 704x320 (2.20:1), 25 fps, DivX Codec 6.8.5/6.9.1 ~1869 kbps avg, 0.33 bit/pixel
Аудио: 48 kHz, AC3 Dolby Digital, 2/0 (L,R) ch, ~384 kbps
Cубтитры: отсутствуют
General
Complete name : D:\Akcija.avi
Format : AVI
Format/Info : Audio Video Interleave
File size : 1.37 GiB
Duration : 1h 26mn
Overall bit rate : 2 263 Kbps
Writing application : VirtualDubMod 1.5.10.2 (build 2540/release)
Writing library : VirtualDubMod build 2540/release
Video
ID : 0
Format : MPEG-4 Visual
Format settings, BVOP : 1
Format settings, QPel : No
Format settings, GMC : No warppoints
Format settings, Matrix : Default (H.263)
Muxing mode : Packed bitstream
Codec ID : DX50
Codec ID/Hint : DivX 5
Duration : 1h 26mn
Bit rate : 1 870 Kbps
Width : 704 pixels
Height : 320 pixels
Display aspect ratio : 2.2:1
Frame rate : 25.000 fps
Color space : YUV
Chroma subsampling : 4:2:0
Bit depth : 8 bits
Scan type : Progressive
Compression mode : Lossy
Bits/(Pixel*Frame) : 0.332
Stream size : 1.13 GiB (83%)
Writing library : DivX 6.8.5 (UTC 2009-08-20)
Audio
ID : 1
Format : AC-3
Format/Info : Audio Coding 3
Mode extension : CM (complete main)
Format settings, Endianness : Big
Codec ID : 2000
Duration : 1h 26mn
Bit rate mode : Constant
Bit rate : 384 Kbps
Channel(s) : 2 channels
Channel positions : Front: L R
Sampling rate : 48.0 KHz
Bit depth : 16 bits
Compression mode : Lossy
Stream size : 237 MiB (17%)
Alignment : Split accross interleaves
Interleave, duration : 40 ms (1.00 video frame)
Interleave, preload duration : 500 ms
Download / Скачать

Хотите скачать бесплатно? Зарегистрируйтесь на сайте (ссылка на регистрацию). Pirat.ca - самый быстрый торрент трекер в рунете!

Как скачивать  ·   Что такое торрент  ·   Рейтинг и ограничения

Пост 08-Май-2014 17:13 (спустя 4 минуты)

Топик был перенесен из форума Наше кино (Трюм) в форум Советское кино
kugesan
 

vovan200976

Флибустьер

Пост 09-Май-2014 11:16 (спустя 18 часов)

[Q] 

Помню этот фильм в кинотеатре смотрел!!! Лови бочку
[Профиль]  [ЛС] 

iohio

Пост 18-Июн-2014 10:36 (спустя 1 месяц 8 дней)

[Q] 

Спасибо за раздачу
[Профиль]  [ЛС] 
Показать сообщения:    
Ответить на тему

Текущее время: Сегодня 07:55

Часовой пояс: GMT + 4



Вы не можете начинать темы
Вы не можете отвечать на сообщения
Вы не можете редактировать свои сообщения
Вы не можете удалять свои сообщения
Вы не можете голосовать в опросах
Вы не можете прикреплять файлы к сообщениям
Вы не можете скачивать файлы

▼ Вниз