ML
     
  Уважаемый Гость!
Вы можете поддержать проект и зарегистрироваться у наших партнеров - онлайн-стратегия MyLands. При регистрации в игре Вы получите код, который сможете активировать после регистрации на pirat.ca и получить 1000 дублонов.

Ваш код:
ee1288b6f7c09d9d2cb2a0f972aba30460ce9333
 
     

Два шага до тишины (Юрий Тупицкий) [1991 г., драма, военный, VHSRip] Sub (Rus [hardsub])

Ответить на тему
 
Автор
Сообщение

Пост 08-Май-2014 17:39

[Q] 

LPPI

-Два шага до тишины- Производство: СССР, Эхо
Жанр: драма, военный
Год выпуска: 1991 г.
Продолжительность: 01:27:48-Режиссер: Юрий Тупицкий
В ролях: Олег Савкин, Елена Ковалева, Алексей Булдаков, Алексей Горбунов, Михаил Гилевич, Егор Грамматиков, Шохрат Курбангельдыев, Мерджен Ниязбердыева, Юсуп Кулиев, Максим Ждановских, Николай Боклан-Описание: Афганистан. Февраль 1989 года. Последние дни пребывание советских войск в чужой стране. Скоро домой, но война еще продолжается. И многие задаются вопросом: кто ты — захватчик или освободитель?..-КиноПоиск-Качество видео: VHSRip
Контейнер: AVI
Видео кодек: DivX
Аудио кодек: MP3
Видео: 640x480 (1.33:1), 25 fps, DivX Codec 5.x or 6.x ~1277 kbps avg, 0.17 bit/pixel
Аудио: 44.100 kHz, MPEG Layer 3, 2 ch, ~160.00 kbps avg
Cубтитры: русские
Формат субтитров: hardsub (неотключаемые)
General
Complete name : D:\Dva.shaga.do.tishini.1991.DivX.VHSRip.avi
Format : AVI
Format/Info : Audio Video Interleave
File size : 906 MiB
Duration : 1h 27mn
Overall bit rate : 1 442 Kbps
Writing library : MPlayer
Video
ID : 0
Format : MPEG-4 Visual
Format profile : [email protected]
Format settings, BVOP : No
Format settings, QPel : No
Format settings, GMC : No warppoints
Format settings, Matrix : Default (H.263)
Codec ID : DX50
Codec ID/Hint : DivX 5
Duration : 1h 27mn
Bit rate : 1 277 Kbps
Width : 640 pixels
Height : 480 pixels
Display aspect ratio : 4:3
Frame rate : 25.000 fps
Color space : YUV
Chroma subsampling : 4:2:0
Bit depth : 8 bits
Scan type : Interlaced
Scan order : Top Field First
Compression mode : Lossy
Bits/(Pixel*Frame) : 0.166
Stream size : 802 MiB (89%)
Writing library : Lavc52.0.0
Audio
ID : 1
Format : MPEG Audio
Format version : Version 1
Format profile : Layer 3
Mode : Joint stereo
Codec ID : 55
Codec ID/Hint : MP3
Duration : 1h 27mn
Bit rate mode : Constant
Bit rate : 160 Kbps
Channel(s) : 2 channels
Sampling rate : 44.1 KHz
Compression mode : Lossy
Stream size : 100 MiB (11%)
Alignment : Split accross interleaves
Interleave, duration : 500 ms (12.50 video frames)
Interleave, preload duration : 500 ms
Download / Скачать

Хотите скачать бесплатно? Зарегистрируйтесь на сайте (ссылка на регистрацию). Pirat.ca - самый быстрый торрент трекер в рунете!

Как скачивать  ·   Что такое торрент  ·   Рейтинг и ограничения

Пост 08-Май-2014 21:56 (спустя 4 часа)

Топик был перенесен из форума Наше кино (Трюм) в форум Советское кино
ara1205
 

vovan200976

Флибустьер

Пост 09-Май-2014 11:26 (спустя 17 часов)

[Q] 

Качество смотрю На любителя может че и увижу !!! Лови бочку
[Профиль]  [ЛС] 

iohio

Пост 18-Июн-2014 10:37 (спустя 1 месяц 8 дней)

[Q] 

Качество не очень...
[Профиль]  [ЛС] 
Показать сообщения:    
Ответить на тему

Текущее время: Сегодня 18:20

Часовой пояс: GMT + 4



Вы не можете начинать темы
Вы не можете отвечать на сообщения
Вы не можете редактировать свои сообщения
Вы не можете удалять свои сообщения
Вы не можете голосовать в опросах
Вы не можете прикреплять файлы к сообщениям
Вы не можете скачивать файлы

▼ Вниз