ML
     
  Уважаемый Гость!
Вы можете поддержать проект и зарегистрироваться у наших партнеров - онлайн-стратегия MyLands. При регистрации в игре Вы получите код, который сможете активировать после регистрации на pirat.ca и получить 1000 дублонов.

Ваш код:
8dcb839cf1b47e56d6dc42d17f26b3e4822e9aee
 
     

Прощай (Григорий Поженян) [1966 г., приключения, военный, DVDRip]

Ответить на тему
 
Автор
Сообщение

Пост 08-Май-2014 19:24

[Q] 

LPPI

-Прощай- Производство: СССР, Одесская киностудия
Жанр: приключения, военный
Год выпуска: 1966 г.
Продолжительность: 01:23:53
Дата выхода DVD: 9 февраля 2010, «Флагман-Трейд»-Режиссер: Григорий Поженян
В ролях: Виктор Авдюшко, Валентин Кулик, Александр Стефанович, Валерий Шапкин, Олег Стриженов, Ангелина Вовк, Жанна Прохоренко, Галина Костырева, Иван Переверзев, Владимир Заманский, Владимир Акимов, Вячеслав Жариков, Анатолий Быстров-Описание: Весна 1944 г. Фашисты ещё в Севастополе, там идут ожесточенные бои. А в освобожденной Ялте стоят мирные дни, и кажется, что война ушла из этой жизни, что она далеко и не опасна.
Но для моряков дивизиона торпедных катеров, базирующихся в Ялте и ежедневно совершающих вылазки в сторону Севастополя, это были суровые дни. Многие из них героически погибли, выполняя ответственные боевые задания.-КиноПоиск-Качество видео: DVDRip
Контейнер: AVI
Видео кодек: DivX
Аудио кодек: AC3
Видео: 720x544 (1.32:1), 25 fps, DivX Codec 6.8 ~1738 kbps avg, 0.18 bit/pixel
Аудио: 48 kHz, AC3 Dolby Digital, 2/0 (L,R) ch, ~256 kbps
Cубтитры: отсутствуют
General
Complete name : D:\Proshay.1966.DivX.DVDRip.avi
Format : AVI
Format/Info : Audio Video Interleave
File size : 1.17 GiB
Duration : 1h 23mn
Overall bit rate : 2 001 Kbps
Writing application : VirtualDubMod 1.5.4.1 (build 2178/release)
Writing library : VirtualDubMod build 2178/release
Video
ID : 0
Format : MPEG-4 Visual
Format settings, BVOP : Yes
Format settings, QPel : No
Format settings, GMC : No warppoints
Format settings, Matrix : Default (H.263)
Codec ID : DX50
Codec ID/Hint : DivX 5
Duration : 1h 23mn
Bit rate : 1 738 Kbps
Width : 720 pixels
Height : 544 pixels
Display aspect ratio : 4:3
Frame rate : 25.000 fps
Color space : YUV
Chroma subsampling : 4:2:0
Bit depth : 8 bits
Scan type : Progressive
Compression mode : Lossy
Bits/(Pixel*Frame) : 0.177
Stream size : 1.02 GiB (87%)
Writing library : DivX 6.8.0 (UTC 2007-12-04)
Audio
ID : 1
Format : AC-3
Format/Info : Audio Coding 3
Mode extension : CM (complete main)
Format settings, Endianness : Big
Codec ID : 2000
Duration : 1h 23mn
Bit rate mode : Constant
Bit rate : 256 Kbps
Channel(s) : 2 channels
Channel positions : Front: L R
Sampling rate : 48.0 KHz
Bit depth : 16 bits
Compression mode : Lossy
Stream size : 154 MiB (13%)
Alignment : Split accross interleaves
Interleave, duration : 96 ms (2.40 video frames)
Interleave, preload duration : 96 ms
Download / Скачать

Хотите скачать бесплатно? Зарегистрируйтесь на сайте (ссылка на регистрацию). Pirat.ca - самый быстрый торрент трекер в рунете!

Как скачивать  ·   Что такое торрент  ·   Рейтинг и ограничения

Пост 08-Май-2014 21:57 (спустя 2 часа 32 минуты)

Топик был перенесен из форума Наше кино (Трюм) в форум Советское кино
ara1205
 
Показать сообщения:    
Ответить на тему

Текущее время: Сегодня 04:16

Часовой пояс: GMT + 4



Вы не можете начинать темы
Вы не можете отвечать на сообщения
Вы не можете редактировать свои сообщения
Вы не можете удалять свои сообщения
Вы не можете голосовать в опросах
Вы не можете прикреплять файлы к сообщениям
Вы не можете скачивать файлы

▼ Вниз