ML
     
  Уважаемый Гость!
Вы можете поддержать проект и зарегистрироваться у наших партнеров - онлайн-стратегия MyLands. При регистрации в игре Вы получите код, который сможете активировать после регистрации на pirat.ca и получить 1000 дублонов.

Ваш код:
b70663c760e7cd2521b8e123786cdd788200e3bd
 
     

Всадники (2 серии) (Вадим Костроменко) [1972 г., военный, SATRip]

Ответить на тему
 
Автор
Сообщение

Пост 11-Май-2014 15:14

[Q] 

Мархуз

-Всадники (2 серии)-- Производство: СССР, Одесская киностудия
Режиссер: Вадим Костроменко
Жанр: военный
Год выпуска: 1972 г.
Продолжительность: 02:17:31
В ролях: Анатолий Барчук, Петя Ластивка, Наташа Микольшина, Володя Краснов, Александр Лебедев, Владимир Ячминский-Описание: В июне 1941 года двум подросткам поручают эвакуацию в тыл породистых скаковых лошадей. Много трудных испытаний ждёт их впереди. Пробиваясь по военным дорогам, они спасают сбитого советского лётчика, попадают в окружение, где встречаются с группой красноармейцев, помогают вывезти на захваченном у немцев самолёте тяжело раненого генерала. В созданном партизанском отряде, рядом со взрослыми, с честью сражаются и наши юные бойцы.-Качество видео: SATRip
Контейнер: AVI
Видео кодек: DivX
Аудио кодек: AC3
Видео:
1 серия: 720x528; 1393 kbps; 25 fps; 0.147 bit/pixel
2 серия: 720x528; 1192 kbps; 25 fps; 0.125 bit/pixel
Аудио: 128 kbps; 2 ch; 48 kHz
Cубтитры: отсутствуют
1 серия:
General
Complete name : E:\Torrent\Vsadniki_[Pirat.ca].torrent\1 серия.avi
Format : AVI
Format/Info : Audio Video Interleave
File size : 698 MiB
Duration : 1h 3mn
Overall bit rate : 1 526 Kbps
Genre : Military & War
Writing application : VirtualDubMod 1.5.10.2 (build 2540/release)
Original source form/Name : Movie
Comment : DVDRip by gera
Video
ID : 0
Format : MPEG-4 Visual
Format settings, BVOP : 3
Format settings, QPel : No
Format settings, GMC : No warppoints
Format settings, Matrix : Default (MPEG)
Muxing mode : Packed bitstream
Codec ID : DX50
Codec ID/Hint : DivX 5
Duration : 1h 3mn
Bit rate : 1 393 Kbps
Width : 720 pixels
Height : 528 pixels
Display aspect ratio : 4:3
Frame rate : 25.000 fps
Color space : YUV
Chroma subsampling : 4:2:0
Bit depth : 8 bits
Scan type : Progressive
Compression mode : Lossy
Bits/(Pixel*Frame) : 0.147
Stream size : 637 MiB (91%)
Writing library : DivX 6.8.2 (UTC 2008-05-17)
Audio
ID : 1
Format : MPEG Audio
Format version : Version 1
Format profile : Layer 3
Mode : Joint stereo
Mode extension : MS Stereo
Codec ID : 55
Codec ID/Hint : MP3
Duration : 1h 3mn
Bit rate mode : Constant
Bit rate : 128 Kbps
Channel(s) : 2 channels
Sampling rate : 48.0 KHz
Compression mode : Lossy
Stream size : 58.5 MiB (8%)
Alignment : Aligned on interleaves
Interleave, duration : 1000 ms (24.99 video frames)
Interleave, preload duration : 1008 ms
2 серия
General
Complete name : E:\Torrent\Vsadniki_[Pirat.ca].torrent\2 серия.avi
Format : AVI
Format/Info : Audio Video Interleave
File size : 698 MiB
Duration : 1h 13mn
Overall bit rate : 1 325 Kbps
Genre : Military & War
Writing application : VirtualDubMod 1.5.10.2 (build 2540/release)
Original source form/Name : Movie
Comment : DVDRip by gera
Video
ID : 0
Format : MPEG-4 Visual
Format settings, BVOP : 2
Format settings, QPel : No
Format settings, GMC : No warppoints
Format settings, Matrix : Default (MPEG)
Muxing mode : Packed bitstream
Codec ID : DX50
Codec ID/Hint : DivX 5
Duration : 1h 13mn
Bit rate : 1 192 Kbps
Width : 720 pixels
Height : 528 pixels
Display aspect ratio : 4:3
Frame rate : 25.000 fps
Color space : YUV
Chroma subsampling : 4:2:0
Bit depth : 8 bits
Scan type : Progressive
Compression mode : Lossy
Bits/(Pixel*Frame) : 0.125
Stream size : 628 MiB (90%)
Writing library : DivX 6.8.2 (UTC 2008-05-17)
Audio
ID : 1
Format : MPEG Audio
Format version : Version 1
Format profile : Layer 3
Mode : Joint stereo
Mode extension : MS Stereo
Codec ID : 55
Codec ID/Hint : MP3
Duration : 1h 13mn
Bit rate mode : Constant
Bit rate : 128 Kbps
Channel(s) : 2 channels
Sampling rate : 48.0 KHz
Compression mode : Lossy
Stream size : 67.4 MiB (10%)
Alignment : Aligned on interleaves
Interleave, duration : 1000 ms (25.00 video frames)
Interleave, preload duration : 1008 ms
Раздача с 14.00 до 2.30 (время московское)
Download / Скачать

Хотите скачать бесплатно? Зарегистрируйтесь на сайте (ссылка на регистрацию). Pirat.ca - самый быстрый торрент трекер в рунете!

Как скачивать  ·   Что такое торрент  ·   Рейтинг и ограничения

Пост 11-Май-2014 16:28 (спустя 1 час 13 минут)

Топик был перенесен из форума Наше кино (Трюм) в форум Советское кино
kugesan
 

cergo

Гроза морей

20033

Пост 11-Май-2014 17:25 (спустя 2 часа 11 минут)

[Q] 

посмотрим старый добрый советский фильм Спасибо!!! Лови бочку
[Профиль]  [ЛС] 

Мархуз ®

4505

Пост 11-Май-2014 17:38 (спустя 13 минут)

[Q] 

cergo, сейчас такие уже не снимают. К сожалению....

_________________

Счастье для всех, даром, и пусть никто не уйдёт обиженный
[Профиль]  [ЛС] 

viktor41

Шкипер

Пост 11-Май-2014 18:01 (спустя 22 минуты)

[Q] 

Marhuz, Спасибо !Добрый советский фильм ...
[Профиль]  [ЛС] 

Gu4i

Штурман

Пост 11-Май-2014 21:33 (спустя 3 часа)

[Q] 

Всадник задниц
[Профиль]  [ЛС] 

Мархуз ®

4505

Пост 12-Май-2014 16:13 (спустя 18 часов)

[Q] 

viktor41, пожалуйста. aa
Добавлено спустя 2 часа 52 минуты 33 секунды:
Gu4i, а это ты к чему написал?

_________________

Счастье для всех, даром, и пусть никто не уйдёт обиженный
[Профиль]  [ЛС] 

iohio

Пост 18-Июн-2014 10:39 (спустя 1 месяц 5 дней)

[Q] 

Спасибо большое
[Профиль]  [ЛС] 
Показать сообщения:    
Ответить на тему

Текущее время: Сегодня 00:18

Часовой пояс: GMT + 4



Вы не можете начинать темы
Вы не можете отвечать на сообщения
Вы не можете редактировать свои сообщения
Вы не можете удалять свои сообщения
Вы не можете голосовать в опросах
Вы не можете прикреплять файлы к сообщениям
Вы не можете скачивать файлы

▼ Вниз