ML
     
  Уважаемый Гость!
Вы можете поддержать проект и зарегистрироваться у наших партнеров - онлайн-стратегия MyLands. При регистрации в игре Вы получите код, который сможете активировать после регистрации на pirat.ca и получить 1000 дублонов.

Ваш код:
ca44e9295b9b8527ba1c339c20494f70782efea6
 
     

Мы из джаза (Карен Шахназаров) [1983 г., Музыкальный, комедия, DVDRip]

Ответить на тему
 
Автор
Сообщение

Пост 24-Май-2014 01:31

[Q] 

Мархуз

-Мы из джаза-- Производство: СССР. Мосфильм
Режиссер: Карен Шахназаров
Жанр: Музыкальный, комедия
Год выпуска: 1983 г.
Продолжительность: 01:23:31
В ролях: Игорь Скляр, Александр Панкратов-Черный, Николай Аверюшкин, Петр Щербаков, Елена Цыплакова, Евгений Евстигнеев, Леонид Куравлев, Борислав Брондуков, Лариса Долина, Юрий Васильев, Николай Кочегаров, Петр Меркурьев, Юрий Гусев, Ирина Мазур-Описание: 20-е годы. Одессит Костя собирает джазбанд. Он убежден в том, что джаз - пролетарское искусство. Свободные музыканты Степан, Жора и саксофонист Императорского двора Иван Бавурин не сразу проникаются новой музыкой.-Качество видео: DVDRip
Контейнер: AVI
Видео кодек: DivX
Аудио кодек: AC3
Видео: 608x464; 1884 kbps; 25 fps; 0.267 bit/pixel
Аудио: 448 kbps; 6 ch; 48 kHz
Cубтитры: отсутствуют
Лучший фильм 1983 года по опросу журнала «Советский экран».
General
Complete name : E:\Torrent\Mi_iz_dzaza_[Pirat.ca].torrent.avi
Format : AVI
Format/Info : Audio Video Interleave
File size : 1.37 GiB
Duration : 1h 23mn
Overall bit rate : 2 340 Kbps
Writing application : VirtualDubMod 1.5.10.2 (build 2540/release)
Writing library : VirtualDubMod build 2540/release
Video
ID : 0
Format : MPEG-4 Visual
Format settings, BVOP : Yes
Format settings, QPel : No
Format settings, GMC : No warppoints
Format settings, Matrix : Default (H.263)
Codec ID : DX50
Codec ID/Hint : DivX 5
Duration : 1h 23mn
Bit rate : 1 884 Kbps
Width : 608 pixels
Height : 464 pixels
Display aspect ratio : 4:3
Frame rate : 25.000 fps
Color space : YUV
Chroma subsampling : 4:2:0
Bit depth : 8 bits
Scan type : Progressive
Compression mode : Lossy
Bits/(Pixel*Frame) : 0.267
Stream size : 1.10 GiB (81%)
Writing library : DivX 6.0.0 (UTC 2005-06-15)
Audio
ID : 1
Format : AC-3
Format/Info : Audio Coding 3
Mode extension : CM (complete main)
Format settings, Endianness : Big
Codec ID : 2000
Duration : 1h 23mn
Bit rate mode : Constant
Bit rate : 448 Kbps
Channel(s) : 6 channels
Channel positions : Front: L C R, Side: L R, LFE
Sampling rate : 48.0 KHz
Bit depth : 16 bits
Compression mode : Lossy
Delay relative to video : 320ms
Stream size : 268 MiB (19%)
Alignment : Split accross interleaves
Interleave, duration : 64 ms (1.60 video frames)
Interleave, preload duration : 64 ms
Раздача с 14.00 до 2.30 (время московское)
Download / Скачать

Хотите скачать бесплатно? Зарегистрируйтесь на сайте (ссылка на регистрацию). Pirat.ca - самый быстрый торрент трекер в рунете!

Как скачивать  ·   Что такое торрент  ·   Рейтинг и ограничения

papanj

Легенда

Пост 24-Май-2014 11:00 (спустя 9 часов)

[Q] 

Отличный фильм, классика отечественного юмора, это всегда хорошее настроение
Супер! Раздающему респект!

_________________
"Не понимаю, зачем думать все время о других..." - "Тебе этого не понять, потому что ты не король..."
Я.Корчак. Король Матиуш Первый
[Профиль]  [ЛС] 

Мархуз ®

4504

Пост 24-Май-2014 12:49 (спустя 1 час 49 минут)

[Q] 

papanj, пожалуйста, качайте на здоровье. aa

_________________

Счастье для всех, даром, и пусть никто не уйдёт обиженный
[Профиль]  [ЛС] 

Пост 24-Май-2014 22:31 (спустя 9 часов)

Топик был перенесен из форума Наше кино (Трюм) в форум Советское кино
kugesan
 

tubuc

Корсар

103

Пост 21-Авг-2016 18:16 (спустя 2 года 2 месяца)

[Q] 

Этот фильм смотрел всегда с удовольствием Спасибо!!!
[Профиль]  [ЛС] 
Показать сообщения:    
Ответить на тему

Текущее время: Сегодня 16:15

Часовой пояс: GMT + 4



Вы не можете начинать темы
Вы не можете отвечать на сообщения
Вы не можете редактировать свои сообщения
Вы не можете удалять свои сообщения
Вы не можете голосовать в опросах
Вы не можете прикреплять файлы к сообщениям
Вы не можете скачивать файлы

▼ Вниз