ML
     
  Уважаемый Гость!
Вы можете поддержать проект и зарегистрироваться у наших партнеров - онлайн-стратегия MyLands. При регистрации в игре Вы получите код, который сможете активировать после регистрации на pirat.ca и получить 1000 дублонов.

Ваш код:
b70663c760e7cd2521b8e123786cdd788200e3bd
 
     

Первая ласточка (Нана Мчедлидзе) [1975 г., комедия, DVDRip]

Ответить на тему
 
Автор
Сообщение

Пост 25-Май-2014 15:16

[Q] 

Мархуз

-Первая ласточка-- Производство: СССР. Грузия-фильм
Режиссер: Нана Мчедлидзе
Жанр: комедия
Год выпуска: 1975 г.
Продолжительность: 01:12:50
В ролях: Давид Абашидзе, Васо Надарая, Ипполит Хвичия, Анзор Херхадзе, Гурам Лордкипанидзе, Дмитрий Джаияни, Василий Чхаидзе, Ия Нинидзе, Лаура Вартанян, Темур Тавадзе, Джумбер Жвания, Борис Пайчадзе, Гурам Пирцхалава, Дудухана Церодзе, Баадур Цуладзе-Описание: Это было в начале века, когда провинциалы Грузии еще не знали о футболе. Однажды, увидев как взрослые носятся за мячом по полю, Хвича удивился, но, разгадав смысл игры, решил во что бы то ни стало создать свою команду. Вскоре его команда "Первая ласточка" стала неизменным победителем всех соревнований. Однако в город прибыло английское судно - и англичане в скором времени нанесли "Ласточке" первое и серьезное поражение...-Качество видео: DVDRip
Контейнер: AVI
Видео кодек: DivX
Аудио кодек: MP3
Видео: 672x304; 1207 kbps; 25 fps; 0.236 bit/pixel
Аудио: 128 kbps; 2 ch; 48 kHz
Cубтитры: отсутствуют
Премия Всесоюзного кинофестиваля (1976)
Главный приз Всесоюзного кинофестиваля за актёрскую работу (1976)
General
Complete name : E:\Torrent\Pervaja_lastochka_[Pirat.ca].torrent.avi
Format : AVI
Format/Info : Audio Video Interleave
File size : 700 MiB
Duration : 1h 12mn
Overall bit rate : 1 344 Kbps
Writing library : VirtualDub build 24442/release
Video
ID : 0
Format : MPEG-4 Visual
Format settings, BVOP : 1
Format settings, QPel : No
Format settings, GMC : No warppoints
Format settings, Matrix : Default (H.263)
Muxing mode : Packed bitstream
Codec ID : DX50
Codec ID/Hint : DivX 5
Duration : 1h 12mn
Bit rate : 1 207 Kbps
Width : 672 pixels
Height : 304 pixels
Display aspect ratio : 2.2:1
Frame rate : 25.000 fps
Color space : YUV
Chroma subsampling : 4:2:0
Bit depth : 8 bits
Scan type : Progressive
Compression mode : Lossy
Bits/(Pixel*Frame) : 0.236
Stream size : 629 MiB (90%)
Writing library : DivX 6.2.5 (UTC 2006-07)
Audio
ID : 1
Format : MPEG Audio
Format version : Version 1
Format profile : Layer 3
Mode : Joint stereo
Mode extension : MS Stereo
Codec ID : 55
Codec ID/Hint : MP3
Duration : 1h 12mn
Bit rate mode : Constant
Bit rate : 128 Kbps
Channel(s) : 2 channels
Sampling rate : 48.0 KHz
Compression mode : Lossy
Stream size : 66.7 MiB (10%)
Alignment : Split accross interleaves
Interleave, duration : 40 ms (1.00 video frame)
Interleave, preload duration : 500 ms
Раздача с 14.00 до 2.30 (время московское)
Download / Скачать

Хотите скачать бесплатно? Зарегистрируйтесь на сайте (ссылка на регистрацию). Pirat.ca - самый быстрый торрент трекер в рунете!

Как скачивать  ·   Что такое торрент  ·   Рейтинг и ограничения

Пост 25-Май-2014 15:26 (спустя 10 минут)

Топик был перенесен из форума Наше кино (Трюм) в форум Советское кино
kugesan
 

iohio

Пост 18-Июн-2014 10:19 (спустя 23 дня)

[Q] 

Большое спасибо за раздачу
[Профиль]  [ЛС] 
Показать сообщения:    
Ответить на тему

Текущее время: Сегодня 00:22

Часовой пояс: GMT + 4



Вы не можете начинать темы
Вы не можете отвечать на сообщения
Вы не можете редактировать свои сообщения
Вы не можете удалять свои сообщения
Вы не можете голосовать в опросах
Вы не можете прикреплять файлы к сообщениям
Вы не можете скачивать файлы

▼ Вниз