ML
     
  Уважаемый Гость!
Вы можете поддержать проект и зарегистрироваться у наших партнеров - онлайн-стратегия MyLands. При регистрации в игре Вы получите код, который сможете активировать после регистрации на pirat.ca и получить 1000 дублонов.

Ваш код:
db0e0ad91548759ffeb9bb88bed405e1a4b3c165
 
     

Подранки (Николай Губенко) [1976 г., драма, DVDRip]

Ответить на тему
 
Автор
Сообщение

Пост 27-Май-2014 15:26

[Q] 

Мархуз

-Подранки-- Производство: СССР. Мосфильм
Режиссер: Николай Губенко
Жанр: драма
Год выпуска: 1976 г.
Продолжительность: 01:28:09
В ролях: Юозас Будрайтис (озвучание - Николай Губенко), Алёша Черствов, Георгий Бурков, Александр Калягин, Жанна Болотова, Ролан Быков, Николай Губенко, Наталья Гундарева, Евгений Евстигнеев, Зоя Евсеева, Бухути Закариадзе, Пантелеймон Крымов (озвучание - Андрей Попов), Виктор Филиппов, Валентина Березуцкая, Даниил Нетребин, Георгий Кавтарадзе, Людмила Шагалова, Михаил Херхеулидзе, Николай Волков, Дмитрий Бессонов, Оля Строгова, Саша Поляков, Андрей Болдин, Светлана Коновалова, Эльза Леждей, Лариса Маркарьян-Описание: Писатель Алексей Бартенев возвращается туда, где провёл детство - в интернат для детей войны. Алексей очень хочет найти своих братьев Дениса и Сергея, которых совсем не помнит. Всех их в детские годы разметала по жизни Великая Отечественная война. Сестра, после гибели на фронте отца и самоубийства матери, до четырнадцати лет заботилась о самом младшем в семье ребёнке - об Алексее. Они вместе голодали и воровали еду...-Качество видео: DVDRip
Контейнер: AVI
Видео кодек: XviD
Аудио кодек: MP3
Видео: 512x384; 972 kbps; 25 fps; 0.198 bit/pixel
Аудио: 128 kbps; 2 ch; 48 kHz
Cубтитры: отсутствуют
1977 г. Каннский кинофестиваль - Участие в Основной программе
1977 г. МКФ в Чикаго - Приз «Бронзовый Хьюго»
1977 г. МКФ в Тегеране - Почётный диплом Союза иранских кинокритиков
1978 г. МКФ в Сантарене - Приз «Золотая гроздь»
1978 г. Всесоюзный кинофестиваль - Главный приз
General
Complete name : E:\Torrent\Podranki_[Pirat.ca].torrent.avi
Format : AVI
Format/Info : Audio Video Interleave
File size : 700 MiB
Duration : 1h 28mn
Overall bit rate : 1 110 Kbps
Writing application : VirtualDubMod 1.5.10.2 (build 2540/release)
Writing library : VirtualDubMod build 2540/release
Video
ID : 0
Format : MPEG-4 Visual
Format profile : Advanced [email protected]
Format settings, BVOP : 2
Format settings, QPel : No
Format settings, GMC : No warppoints
Format settings, Matrix : Default (H.263)
Muxing mode : Packed bitstream
Codec ID : XVID
Codec ID/Hint : XviD
Duration : 1h 28mn
Bit rate : 972 Kbps
Width : 512 pixels
Height : 384 pixels
Display aspect ratio : 4:3
Frame rate : 25.000 fps
Color space : YUV
Chroma subsampling : 4:2:0
Bit depth : 8 bits
Scan type : Progressive
Compression mode : Lossy
Bits/(Pixel*Frame) : 0.198
Stream size : 613 MiB (88%)
Writing library : XviD 1.2.0SMP (UTC 2006-01-08)
Audio
ID : 1
Format : MPEG Audio
Format version : Version 1
Format profile : Layer 3
Mode : Joint stereo
Codec ID : 55
Codec ID/Hint : MP3
Duration : 1h 28mn
Bit rate mode : Constant
Bit rate : 128 Kbps
Channel(s) : 2 channels
Sampling rate : 48.0 KHz
Compression mode : Lossy
Stream size : 80.7 MiB (12%)
Alignment : Aligned on interleaves
Interleave, duration : 40 ms (1.00 video frame)
Interleave, preload duration : 504 ms
Writing library : LAME3.90.3
Раздача с 14.00 до 2.30 (время московское)
Download / Скачать

Хотите скачать бесплатно? Зарегистрируйтесь на сайте (ссылка на регистрацию). Pirat.ca - самый быстрый торрент трекер в рунете!

Как скачивать  ·   Что такое торрент  ·   Рейтинг и ограничения

Пост 27-Май-2014 15:36 (спустя 10 минут)

Топик был перенесен из форума Наше кино (Трюм) в форум Советское кино
kugesan
 
Показать сообщения:    
Ответить на тему

Текущее время: Сегодня 08:04

Часовой пояс: GMT + 4



Вы не можете начинать темы
Вы не можете отвечать на сообщения
Вы не можете редактировать свои сообщения
Вы не можете удалять свои сообщения
Вы не можете голосовать в опросах
Вы не можете прикреплять файлы к сообщениям
Вы не можете скачивать файлы

▼ Вниз