ML
     
  Уважаемый Гость!
Вы можете поддержать проект и зарегистрироваться у наших партнеров - онлайн-стратегия MyLands. При регистрации в игре Вы получите код, который сможете активировать после регистрации на pirat.ca и получить 1000 дублонов.

Ваш код:
fe4e93b754a7c2b306fcfc8bc32532ea1cf59d3b
 
     

Сломанная подкова (Семён Аранович) [1979 г., детектив, семейный, SATRip]

Ответить на тему
 
Автор
Сообщение

Пост 28-Май-2014 13:46

[Q] 

Мархуз

-Сломанная подкова-- Производство: СССР, Ленфильм
Режиссер: Семён Аранович
Жанр: детектив, семейный
Год выпуска: 1973 г.
Продолжительность: 01:15:31
В ролях: Сергей Юрский, Марина Неёлова, Владимир Разумовский, Витаутас Паукште, Бронюс Бабкаускас, Владимир Татосов, Кирилл Гунн, Валентинс Скулме, Станислав Соколов, Антс Эскола, Яан Тооминг.-Описание: Действие происходит в конце ХIX века в Эстонии, входившей в состав царской России. Французский аэронавт Жюль Ардан, путешествующий на воздушном шаре, прибывает вопреки своему желанию в некий город Ревель. Познакомившись с доктором Петерсоном и его дочерью, он вскоре узнает, что за ее женихом Яковлевым охотятся жандармы... Жюль принимает активное участие в защите доктора и пламенного революционера Яковлева - и все четверо на воздушном шаре покидают Ревель...-Качество видео: SATRip
Контейнер: AVI
Видео кодек: XviD
Аудио кодек: MP3
Видео: 704x416; 1112 kbps; 25 fps; 0.152 bit/pixel
Аудио: 192 kbps; 2 ch; 48 kHz
Cубтитры: отсутствуют
General
Complete name : E:\Torrent\Slomanaja_podkova_[Pirat.ca].torrent.avi
Format : AVI
Format/Info : Audio Video Interleave
File size : 707 MiB
Duration : 1h 15mn
Overall bit rate : 1 314 Kbps
Writing application : VirtualDubMod 1.5.10.2 (build 2540/release)
Writing library : VirtualDub build 35390/release
Video
ID : 0
Format : MPEG-4 Visual
Format profile : Advanced [email protected]
Format settings, BVOP : 2
Format settings, QPel : No
Format settings, GMC : No warppoints
Format settings, Matrix : Default (H.263)
Muxing mode : Packed bitstream
Codec ID : XVID
Codec ID/Hint : XviD
Duration : 1h 15mn
Bit rate : 1 112 Kbps
Width : 704 pixels
Height : 416 pixels
Display aspect ratio : 1.692
Frame rate : 25.000 fps
Color space : YUV
Chroma subsampling : 4:2:0
Bit depth : 8 bits
Scan type : Progressive
Compression mode : Lossy
Bits/(Pixel*Frame) : 0.152
Stream size : 598 MiB (85%)
Writing library : XviD 64
Audio
ID : 1
Format : MPEG Audio
Format version : Version 1
Format profile : Layer 3
Codec ID : 55
Codec ID/Hint : MP3
Duration : 1h 15mn
Bit rate mode : Constant
Bit rate : 192 Kbps
Channel(s) : 2 channels
Sampling rate : 48.0 KHz
Compression mode : Lossy
Stream size : 103 MiB (15%)
Alignment : Aligned on interleaves
Interleave, duration : 40 ms (1.00 video frame)
Interleave, preload duration : 504 ms
Writing library : LAMEUh‰˜юЪЭWМ1*~/1
Раздача с 14.00 до 2.30 (время московское)
Download / Скачать

Хотите скачать бесплатно? Зарегистрируйтесь на сайте (ссылка на регистрацию). Pirat.ca - самый быстрый торрент трекер в рунете!

Как скачивать  ·   Что такое торрент  ·   Рейтинг и ограничения



Последний раз редактировалось: Мархуз (2014-07-21 16:09), всего редактировалось 1 раз

Пост 28-Май-2014 13:57 (спустя 11 минут)

Топик был перенесен из форума Наше кино (Трюм) в форум Советское кино
kugesan
 

Egostaf

Лоцман

Пост 08-Июн-2014 22:23 (спустя 11 дней)

[Q] 

Кино "Сломанная подкова" 1973 года! Слово подкова с маленькой буквы.
[Профиль]  [ЛС] 

iohio

Пост 18-Июн-2014 10:32 (спустя 9 дней)

[Q] 

Спасибо за раздачу
[Профиль]  [ЛС] 

Мархуз ®

4505

Пост 21-Июл-2014 14:11 (спустя 1 месяц 3 дня)

[Q] 

Egostaf, Всё исправил.

_________________

Счастье для всех, даром, и пусть никто не уйдёт обиженный
[Профиль]  [ЛС] 
Показать сообщения:    
Ответить на тему

Текущее время: Сегодня 14:31

Часовой пояс: GMT + 4



Вы не можете начинать темы
Вы не можете отвечать на сообщения
Вы не можете редактировать свои сообщения
Вы не можете удалять свои сообщения
Вы не можете голосовать в опросах
Вы не можете прикреплять файлы к сообщениям
Вы не можете скачивать файлы

▼ Вниз