ML
     
  Уважаемый Гость!
Вы можете поддержать проект и зарегистрироваться у наших партнеров - онлайн-стратегия MyLands. При регистрации в игре Вы получите код, который сможете активировать после регистрации на pirat.ca и получить 1000 дублонов.

Ваш код:
5af7de75d3db09b6a37bc8bab71b0e87ccde73d6
 
     

Сошедшие с небес (Наталия Трощенко) [1986 г., военный, драма, DVDRip]

Ответить на тему
 
Автор
Сообщение

Пост 29-Май-2014 13:01

[Q] 

Мархуз

-Сошедшие с небес-- Производство: СССР, Ленфильм
Режиссер: Наталия Трощенко
Жанр: военный, драма
Год выпуска: 1986 г.
Продолжительность: 01:15:40
В ролях: Вера Глаголева, Александр Абдулов, Елена Попова, Юрий Беляев, Кирилл Алексеев, Олег Меленевский, Николай Иванов, Виктор Костецкий, Сергей Иванов, Л.Грищенко, Н.Клименко, Ю.Криливец-Описание: 1942 год. В Аджимушкайских катакомбах под Керчью укрылись бойцы, прикрывавшие отход Красной армии. Вместе с ними - бегущие от врага мирные жители, госпитали с огромным количеством раненых, которых не удалось эвакуировать. Именно там Маша и Сергей познакомились и полюбили друг друга. Как сложится их жизнь после Победы? Найдут ли они работу по душе, останутся ли их чувства друг к другу такими же сильными?-Качество видео: DVDRip
Контейнер: AVI
Видео кодек: DivX
Аудио кодек: AC3
Видео: 720x368; 1650 kbps; 25 fps; 0.249 bit/pixel
Аудио: 256 kbps; 2 ch; 48 kHz
Cубтитры: отсутствуют
General
Complete name : E:\Torrent\Soshedshie_s_nebes_[Pirat.ca].torrent.avi
Format : AVI
Format/Info : Audio Video Interleave
File size : 1.01 GiB
Duration : 1h 15mn
Overall bit rate : 1 916 Kbps
Writing application : VirtualDubModRus 1.5.10.2 (build 2542/release)
Writing library : VirtualDubMod build 2542/release
Video
ID : 0
Format : MPEG-4 Visual
Format settings, BVOP : 1
Format settings, QPel : No
Format settings, GMC : No warppoints
Format settings, Matrix : Default (MPEG)
Codec ID : DX50
Codec ID/Hint : DivX 5
Duration : 1h 15mn
Bit rate : 1 650 Kbps
Width : 720 pixels
Height : 368 pixels
Display aspect ratio : 1.957
Frame rate : 25.000 fps
Color space : YUV
Chroma subsampling : 4:2:0
Bit depth : 8 bits
Scan type : Progressive
Compression mode : Lossy
Bits/(Pixel*Frame) : 0.249
Stream size : 893 MiB (86%)
Writing library : DivX 1307m
Audio
ID : 1
Format : AC-3
Format/Info : Audio Coding 3
Mode extension : CM (complete main)
Format settings, Endianness : Big
Codec ID : 2000
Duration : 1h 15mn
Bit rate mode : Constant
Bit rate : 256 Kbps
Channel(s) : 2 channels
Channel positions : Front: L R
Sampling rate : 48.0 KHz
Bit depth : 16 bits
Compression mode : Lossy
Stream size : 139 MiB (13%)
Alignment : Aligned on interleaves
Interleave, duration : 40 ms (1.00 video frame)
Interleave, preload duration : 512 ms
Раздача с 14.00 до 2.30 (время московское)
Download / Скачать

Хотите скачать бесплатно? Зарегистрируйтесь на сайте (ссылка на регистрацию). Pirat.ca - самый быстрый торрент трекер в рунете!

Как скачивать  ·   Что такое торрент  ·   Рейтинг и ограничения

Пост 29-Май-2014 13:02 (спустя 1 минута)

Топик был перенесен из форума Наше кино (Трюм) в форум Советское кино
kugesan
 
Показать сообщения:    
Ответить на тему

Текущее время: Сегодня 14:14

Часовой пояс: GMT + 4



Вы не можете начинать темы
Вы не можете отвечать на сообщения
Вы не можете редактировать свои сообщения
Вы не можете удалять свои сообщения
Вы не можете голосовать в опросах
Вы не можете прикреплять файлы к сообщениям
Вы не можете скачивать файлы

▼ Вниз