ML
     
  Уважаемый Гость!
Вы можете поддержать проект и зарегистрироваться у наших партнеров - онлайн-стратегия MyLands. При регистрации в игре Вы получите код, который сможете активировать после регистрации на pirat.ca и получить 1000 дублонов.

Ваш код:
193c38d0130f05c24de871678ea3ac181461757d
 
     

Служили два товарища (Евгений Карелов) [1968 г., военный, DVDRip]

Ответить на тему
 
Автор
Сообщение

Пост 02-Июн-2014 19:58

[Q] 

Мархуз

-Служили два товарища-- Производство: СССР, Мосфильм
Режиссер: Евгений Карелов
Жанр: военный
Год выпуска: 1968 г.
Продолжительность: 01:33:00
В ролях: Олег Янковский, Ролан Быков, Владимир Высоцкий, Ия Саввина, Анатолий Папанов, Николай Крючков, Петр Крылов, Б. Силантьев, Николай Бурляев, Алла Демидова, Ростислав Янковский, Роман Ткачук, Николай Дупак, Валентина Березуцкая, Юозас Будрайтис, Николай Парфёнов, Вениамин Смехов, Юрий Кузьменков, Татьяна Иваненко, Валентина Сперантова, Евгений Марков-Описание: Гражданская война. К красным попадает трофейный киноаппарат - новенький французский "Патэ". Штаб решает использовать этот случай для аэросъемки вражеских укреплений. Бывший фотограф - солдат Андрей Некрасов - назначается кинооператором. Под "надзором" Ивана Карякина, недавно разжалованного в рядовые за неуважение к воинской дисциплине, Некрасов приступает к выполнению задания...-Качество видео: DVDRip
Контейнер: AVI
Видео кодек: XviD
Аудио кодек: AC3
Видео: 720x304; 1782 kbps; 25 fps; 0.326 bit/pixel
Аудио: 448 kbps; 6 ch; 48 kHz
Cубтитры: отсутствуют
По независимым опросам "Livejournal" и "Liveinternet" фильм вошёл в «100 лучших российских фильмов».
General
Complete name : E:\Torrent\Slujili_dva_tovarischa_[Pirat.ca].torrent.avi
Format : AVI
Format/Info : Audio Video Interleave
File size : 1.46 GiB
Duration : 1h 33mn
Overall bit rate : 2 240 Kbps
Director : zim2001
Writing application : VirtualDubMod 1.5.10.2 (build 2540/release)
Video
ID : 0
Format : MPEG-4 Visual
Format profile : Advanced [email protected]
Format settings, BVOP : 2
Format settings, QPel : No
Format settings, GMC : No warppoints
Format settings, Matrix : Custom
Codec ID : XVID
Codec ID/Hint : XviD
Duration : 1h 33mn
Bit rate : 1 782 Kbps
Width : 720 pixels
Height : 304 pixels
Display aspect ratio : 2.35:1
Frame rate : 25.000 fps
Color space : YUV
Chroma subsampling : 4:2:0
Bit depth : 8 bits
Scan type : Progressive
Compression mode : Lossy
Bits/(Pixel*Frame) : 0.326
Stream size : 1.16 GiB (80%)
Writing library : XviD 56
Audio
ID : 1
Format : AC-3
Format/Info : Audio Coding 3
Codec ID : 2000
Duration : 1h 32mn
Bit rate mode : Constant
Bit rate : 448 Kbps
Channel(s) : 6 channels
Sampling rate : 48.0 KHz
Compression mode : Lossy
Stream size : 298 MiB (20%)
Alignment : Split accross interleaves
Interleave, duration : 40 ms (1.00 video frame)
Interleave, preload duration : 500 ms
Раздача с 14.00 до 2.30 (время московское)
Download / Скачать

Хотите скачать бесплатно? Зарегистрируйтесь на сайте (ссылка на регистрацию). Pirat.ca - самый быстрый торрент трекер в рунете!

Как скачивать  ·   Что такое торрент  ·   Рейтинг и ограничения

Пост 02-Июн-2014 22:59 (спустя 3 часа)

Топик был перенесен из форума Наше кино (Трюм) в форум Советское кино
kugesan
 

kmv01

Гроза морей

Пост 05-Июн-2014 11:42 (спустя 2 дня 15 часов)

[Q] 

Хороший фильм! Звездный подбор актеров! Кстати, мало кто знает, что Ростислав Янковский, сыгравший роль полковника Васильчикова - старший брат Олега Янковского. И Р.Янковский не менее известный и титулованный артист, чем его брат О.Янковский.
[Профиль]  [ЛС] 
Показать сообщения:    
Ответить на тему

Текущее время: Сегодня 18:04

Часовой пояс: GMT + 4



Вы не можете начинать темы
Вы не можете отвечать на сообщения
Вы не можете редактировать свои сообщения
Вы не можете удалять свои сообщения
Вы не можете голосовать в опросах
Вы не можете прикреплять файлы к сообщениям
Вы не можете скачивать файлы

▼ Вниз