ML
     
  Уважаемый Гость!
Вы можете поддержать проект и зарегистрироваться у наших партнеров - онлайн-стратегия MyLands. При регистрации в игре Вы получите код, который сможете активировать после регистрации на pirat.ca и получить 1000 дублонов.

Ваш код:
a6d1ef7ff63e237add5a4c8b21d8aa937c5e9b4b
 
     

Воры в законе (Юрий Кара) [1988 г., триллер, криминал, DVDRip]

Ответить на тему
 
Автор
Сообщение

Пост 06-Июн-2014 00:57

[Q] 

Sigel-1

Шкипер

-Воры в законе-- Производство: СССР
Режиссер: Юрий Кара
Жанр: триллер, криминал
Год выпуска: 1988 г.
Продолжительность: 01:29:21
Российская премьера: 15 марта 1990
Дата выхода DVD: 25 сентября 2008
В ролях: Серкей Максачев, Константин Кищук, Станислав Коренев, Амаяк Акопян, Гиви Лежава, Зиновий Гердт, Нурбей Камкиа, Арнис Лицитис, Борис Щербаков, Владимир Стеклов, Валентин Гафт, Анна Самохина-Описание: Актуальный для конца восьмидесятых остросоциальный боевик о советской коррупции, расцветшей в благоприятных условиях черноморского побережья и паралича власти. Гангстерская история «из жизни кавказской мафии», где двое главарей враждующих группировок из южного приморского городка борются за сферы влияния. В эту борьбу оказывается, втянута роковая красавица Рита, повторившая на свой лад судьбу Кармен.-
Качество видео: DVDRip
Контейнер: AVI
Видео кодек: XviD
Аудио кодек: AC3
Видео: MPEG-4 Visual at 1740 Кбит/сек : 720 x 480 (1.500) at 29.970 fps, 0.168 Бит/Пиксели
Аудио: AC-3 at 448 Кбит/сек : 6 каналов, 48,0 КГц
Cубтитры: отсутствуют
Зрителям, достигшим 18
Общее
Полное имя : D:\уторент\раздачя\Vory.v.zakone.1988.XviD.DVDRip.avi
Формат : AVI
Формат/Информация : Audio Video Interleave
Размер файла : 1,37 Гбайт
Продолжительность : 1 ч. 29 м.
Общий поток : 2200 Кбит/сек
Видео
Идентификатор : 0
Формат : MPEG-4 Visual
Профиль формата : [email protected]
Параметр BVOP формата : Нет
Параметр QPel формата : Нет
Параметр GMC формата : Без точки перехода
Параметр матрицы формата : Default (H.263)
Идентификатор кодека : XVID
Идентификатор кодека/Подсказка : XviD
Продолжительность : 1 ч. 29 м.
Продолжительность оригинала : 1 ч. 29 м.
Битрейт : 1740 Кбит/сек
Ширина : 720 пикселей
Высота : 480 пикселей
Соотношение сторон : 3:2
Частота кадров : 29,970 кадров/сек
Стандарт вещания : NTSC
Цветовое пространство : YUV
Субдискретизация насыщенности : 4:2:0
Битовая глубина : 8 бит
Тип развёртки : Прогрессивная
Метод сжатия : С потерями
Бит/(Пиксели*Кадры) : 0.168
Размер потока : 1,09 Гбайт (79%)
Библиотека кодирования : XviD 1.1.2 (UTC 2006-11-01)
Аудио
Идентификатор : 1
Формат : AC-3
Формат/Информация : Audio Coding 3
Расширение режима : CM (complete main)
Параметр Endianness формата : Big
Идентификатор кодека : 2000
Продолжительность : 1 ч. 29 м.
Вид битрейта : Постоянный
Битрейт : 448 Кбит/сек
Каналы : 6 каналов
Расположение каналов : Front: L C R, Side: L R, LFE
Частота : 48,0 КГц
Битовая глубина : 16 бит
Метод сжатия : С потерями
Размер потока : 286 Мбайт (20%)
Выравнивание : Соединение по промежуткам
Продолжительность промежутка : 32 мс. (0,96 видеокадр)
Download / Скачать

Хотите скачать бесплатно? Зарегистрируйтесь на сайте (ссылка на регистрацию). Pirat.ca - самый быстрый торрент трекер в рунете!

Как скачивать  ·   Что такое торрент  ·   Рейтинг и ограничения



Последний раз редактировалось: Sigel-1 (2014-06-06 12:50), всего редактировалось 2 раз(а)

Sigel-1 ®

Шкипер

3143

Пост 06-Июн-2014 03:05 (спустя 2 часа 8 минут)

[Q] 

Помогите исправить пожалуйста

_________________
[Профиль]  [ЛС] 

MaXoR

Флибустьер

1468

Пост 06-Июн-2014 08:28 (спустя 5 часов)

[Q] 

543781Помогите исправить пожалуйста
Фильм

_________________
Живы будем - не помрем!
[Профиль]  [ЛС] 

Sigel-1 ®

Шкипер

3143

Пост 06-Июн-2014 11:59 (спустя 3 часа)

[Q] 

MaXoR, Что смотреть умного, я не чего не увидел.

_________________
[Профиль]  [ЛС] 

Пост 06-Июн-2014 12:31 (спустя 32 минуты)

Топик был перенесен из форума Наше кино (Трюм) в форум Советское кино
kugesan
 

iohio

Пост 18-Июн-2014 10:23 (спустя 11 дней)

[Q] 

Спасибо за раздачу
[Профиль]  [ЛС] 
Показать сообщения:    
Ответить на тему

Текущее время: Сегодня 13:31

Часовой пояс: GMT + 4



Вы не можете начинать темы
Вы не можете отвечать на сообщения
Вы не можете редактировать свои сообщения
Вы не можете удалять свои сообщения
Вы не можете голосовать в опросах
Вы не можете прикреплять файлы к сообщениям
Вы не можете скачивать файлы

▼ Вниз