ML
     
  Уважаемый Гость!
Вы можете поддержать проект и зарегистрироваться у наших партнеров - онлайн-стратегия MyLands. При регистрации в игре Вы получите код, который сможете активировать после регистрации на pirat.ca и получить 1000 дублонов.

Ваш код:
8dcb839cf1b47e56d6dc42d17f26b3e4822e9aee
 
     

Опасные друзья (Владимир Шамшурин) [1979 г., драма, криминал, SATRip]

Ответить на тему
 
Автор
Сообщение

Пост 03-Июл-2014 08:19

[Q] 

Sigel-1

Шкипер

-Опасные друзья-- Производство: СССР
Режиссер: Владимир Шамшурин
Жанр: драма, криминал
Год выпуска: 1979 г.
Продолжительность: 01:31:38
Премьера (мир): 28 января 1980
В ролях: Лев Прыгунов, Пётр Вельяминов, Гурген (Георгий) Тонунц, Афанасий Тришкин, Владимир Новиков, Владимир Носик, Александр Январёв, Владимир Скляров, Владимир Прокофьев, Алексей Ванин, Виктор Шульгин, Владимир Ферапонтов, Юрий Мартынов, Наталья Гвоздикова, Тамара Сёмина, Любовь Соколова, Людмила Гаврилова, Шавкат Газиев, Руслан Микаберидзе-Описание: Жестокие законы зоны, обитатели которой делятся на иерархические кланы, диктуют свои условия поведения. Начальник учреждения майор Калинин видит в зэках не столько преступников, сколько людей, оступившихся в жизни, и старается дать каждому шанс исправиться. Но не все принимают его позицию...-Сэмпл КиноПоиск
Качество видео: SATRip
Контейнер: AVI
Видео кодек: XviD
Аудио кодек: AC3
Видео: MPEG-4 Visual at 998 Кбит/сек : 640 x 480 at 25.000 fps, 0.130 Бит/Пиксели*Кадры
Аудио: MPEG Audio at 128 Кбит/сек : 2 канала, 48,0 КГц
Cубтитры: отсутствуют
Зрителям, достигшим 16 лет
Общее
Полное имя : D:\уторент\раздачи\Опасные друзья.avi
Формат : AVI
Формат/Информация : Audio Video Interleave
Размер файла : 745 Мбайт
Продолжительность : 1 ч. 31 м.
Общий поток : 1136 Кбит/сек
Программа кодирования : VirtualDubMod 1.5.10.3 | www.virtualdub-fr.org || (build 2550/release)
Библиотека кодирования : VirtualDubMod build 2550/release
Видео
Идентификатор : 0
Формат : MPEG-4 Visual
Профиль формата : Advanced [email protected]
Параметр BVOP формата : 2
Параметр QPel формата : Нет
Параметр GMC формата : Без точки перехода
Параметр матрицы формата : Выборочная
Идентификатор кодека : XVID
Идентификатор кодека/Подсказка : XviD
Продолжительность : 1 ч. 31 м.
Битрейт : 998 Кбит/сек
Ширина : 640 пикселей
Высота : 480 пикселей
Соотношение сторон : 4:3
Частота кадров : 25,000 кадров/сек
Цветовое пространство : YUV
Субдискретизация насыщенности : 4:2:0
Битовая глубина : 8 бит
Тип развёртки : Прогрессивная
Метод сжатия : С потерями
Бит/(Пиксели*Кадры) : 0.130
Размер потока : 654 Мбайт (88%)
Библиотека кодирования : XviD 73
Аудио
Идентификатор : 1
Формат : MPEG Audio
Версия формата : Version 1
Профиль формата : Layer 3
Режим : Joint stereo
Расширение режима : MS Stereo
Идентификатор кодека : 55
Идентификатор кодека/Подсказка : MP3
Продолжительность : 1 ч. 31 м.
Вид битрейта : Постоянный
Битрейт : 128 Кбит/сек
Каналы : 2 канала
Частота : 48,0 КГц
Метод сжатия : С потерями
Размер потока : 83,9 Мбайт (11%)
Выравнивание : Соединение по промежуткам
Продолжительность промежутка : 40 мс. (1,00 видеокадр)
Время предзагрузки промежутка : 504 мс.
Библиотека кодирования : LAME3.99r
Настройки программы : -m j -V 4 -q 2 -lowpass 17 -b 128
Download / Скачать

Хотите скачать бесплатно? Зарегистрируйтесь на сайте (ссылка на регистрацию). Pirat.ca - самый быстрый торрент трекер в рунете!

Как скачивать  ·   Что такое торрент  ·   Рейтинг и ограничения

Пост 03-Июл-2014 13:58 (спустя 5 часов)

Топик был перенесен из форума Наше кино (Трюм) в форум Советское кино
kugesan
 
Показать сообщения:    
Ответить на тему

Текущее время: Сегодня 04:18

Часовой пояс: GMT + 4



Вы не можете начинать темы
Вы не можете отвечать на сообщения
Вы не можете редактировать свои сообщения
Вы не можете удалять свои сообщения
Вы не можете голосовать в опросах
Вы не можете прикреплять файлы к сообщениям
Вы не можете скачивать файлы

▼ Вниз