ML
     
  Уважаемый Гость!
Вы можете поддержать проект и зарегистрироваться у наших партнеров - онлайн-стратегия MyLands. При регистрации в игре Вы получите код, который сможете активировать после регистрации на pirat.ca и получить 1000 дублонов.

Ваш код:
ba41f7961e0b4717aed6a401d955262223b8f6c4
 
     

Крушение империи (Владимир Корш-Саблин, Николай Калинин) [1970 г., история, драма, TVRip]

Ответить на тему
 
Автор
Сообщение

Пост 21-Июл-2014 20:26

[Q] 

msdos9

Юнга

-Крушение империи-- Производство: Беларусьфильм
Режиссер: Владимир Корш-Саблин, Николай Калинин
Жанр: история, драма
Год выпуска: 1970 г.
Продолжительность: 01:32:57
Российская премьера: 12 апреля 1971
В ролях: Николай Ерёменко (ст.), Зинаида Кириенко, Евгений Самойлов, Анатолий Соловьёв, Тамара Коновалова, Андрей Вертоградов, Владимир Белокуров, Леонид Кмит, Владислав Стржельчик, Сергей Карнович-Валуа, Алексей Грибов, Николай Крюков, Виктор Тарасов, Павел Панков, Владимир Балашов, Фёдор Никитин, Кузьма Кулаков, В. Маков, Дмитрий Масанов, Феликс Эйнас, С. Говор-Бондаренко, Борис Клюев, Михаил Волков, Михаил Васильев, Олег Марусев-Описание: Февраль 1917 года. Война шла уже третий год. Русские армии отступали истекая кровью. В тылу царил голод. Вспыхивали волнения. Царь был уверен в прочности режима. Но даже те, кто был предан монархии, чувствовали приближение конца.-Качество видео: TVRip
Контейнер: MP4
Видео кодек: XviD
Аудио кодек: MP3
Видео: 720x576 & 768x576, 3 969 Kbps, 25 fps, 0.38 Bits/Pixel
Аудио: 128 Kbps, 1 ch, 48.0 KHz
Cубтитры: отсутствуют
General
Complete name : D:\UPLOAD\Крушение империи (1970)\Крушение империи (1970).mpg
Format : MPEG-PS
File size : 2.71 GiB
Duration : 1h 32mn
Overall bit rate mode : Variable
Overall bit rate : 4 180 Kbps
Video
ID : 224 (0xE0)
Format : MPEG Video
Format version : Version 2
Format profile : [email protected]
Format settings, BVOP : Yes
Format settings, Matrix : Custom
Format settings, GOP : M=3, N=12
Duration : 1h 32mn
Bit rate mode : Variable
Bit rate : 3 969 Kbps
Maximum bit rate : 15.0 Mbps
Width : 720 pixels
Height : 576 pixels
Display aspect ratio : 4:3
Frame rate : 25.000 fps
Standard : PAL
Color space : YUV
Chroma subsampling : 4:2:0
Bit depth : 8 bits
Scan type : Interlaced
Scan order : Top Field First
Compression mode : Lossy
Bits/(Pixel*Frame) : 0.383
Time code of first frame : 00:00:00:00
Time code source : Group of pictures header
Stream size : 2.58 GiB (95%)
Audio
ID : 192 (0xC0)
Format : MPEG Audio
Format version : Version 1
Format profile : Layer 2
Duration : 1h 32mn
Bit rate mode : Constant
Bit rate : 128 Kbps
Channel count : 1 channel
Sampling rate : 48.0 KHz
Compression mode : Lossy
Stream size : 85.1 MiB (3%)
Download / Скачать

Хотите скачать бесплатно? Зарегистрируйтесь на сайте (ссылка на регистрацию). Pirat.ca - самый быстрый торрент трекер в рунете!

Как скачивать  ·   Что такое торрент  ·   Рейтинг и ограничения



Последний раз редактировалось: msdos9 (2014-07-21 21:32), всего редактировалось 2 раз(а)

Пост 21-Июл-2014 21:41 (спустя 1 час 15 минут)

Топик был перенесен из форума Наше кино (Трюм) в форум Советское кино
kugesan
 

goga13

Штурман

Пост 23-Ноя-2014 19:17 (спустя 4 месяца 1 день)

[Q] 

раздающий вернись
[Профиль]  [ЛС] 
Показать сообщения:    
Ответить на тему

Текущее время: Сегодня 14:47

Часовой пояс: GMT + 4



Вы не можете начинать темы
Вы не можете отвечать на сообщения
Вы не можете редактировать свои сообщения
Вы не можете удалять свои сообщения
Вы не можете голосовать в опросах
Вы не можете прикреплять файлы к сообщениям
Вы не можете скачивать файлы

▼ Вниз