ML
     
  Уважаемый Гость!
Вы можете поддержать проект и зарегистрироваться у наших партнеров - онлайн-стратегия MyLands. При регистрации в игре Вы получите код, который сможете активировать после регистрации на pirat.ca и получить 1000 дублонов.

Ваш код:
a261790f23fb05d13d060bdee9cb70d1451a6d3d
 
     

Расписание на послезавтра (Игорь Добролюбов) [1978 г., драма, семейный, TVRip]

Ответить на тему
 
Автор
Сообщение

Пост 21-Июл-2014 22:10

[Q] 

msdos9

Юнга

-Расписание на послезавтра-- Производство: СССР, Беларусьфильм
Режиссер: Игорь Добролюбов
Жанр: драма, семейный
Год выпуска: 1978 г.
Продолжительность: 01:22:16
Российская премьера: май 1978
В ролях: Олег Даль, Маргарита Терехова, Тамара Дегтярёва, Александр Леньков, Александр Денисов, Валентин Никулин, Вячеслав Баранов, Юрий Воротницкий, Владимир Солодовников, Ирина Метлицкая, Полина Медведева, Евгений Стеблов, Валентина Титова, Борис Новиков, Регина Корохова, Владимир Басов, Баадур Цуладзе, Леонид Рахленко, Александра Климова, Валентина Владимирова, Любовь Румянцева, Николай Ерёменко (ст.), Валерий Носик, Тамара Муженко-Описание: Киноповесть об одаренных учащихся и увлеченных преподавателях физико-математической школы, в которой появилась новая учительница литературы, не менее увлеченная, чем ее коллеги.
Сюжет фильма строится вокруг широко известного во время создания фильма «спора физиков и лириков».
В физико-математическую школу имени Льва Ландау при институте физики Академии Наук СССР из обычной школы переходит работать учительница литературы Антонина Сергеевна. С удивлением она замечает, сколь уважительно здесь относятся к ученикам — как к полноценным творческим личностям.-Качество видео: TVRip
Контейнер: AVI
Видео кодек: DivX
Аудио кодек: MP3
Видео: 720x544, 25 fps, ~2207 kbps, 0.23 bit/pixel
Аудио: 48 kHz, 1 ch, ~256.00 kbps
Cубтитры: отсутствуют
Приз ЦК ЛКСМБ Туркмении за лучший фильм о молодежи;
Бронзовая медаль ВДНХ.
Format : AVI
Format/Info : Audio Video Interleave
Format profile : OpenDML
File size : 1.42 GiB
Duration : 1h 22mn
Overall bit rate : 2 471 Kbps
Movie name : Raspisanie na poslezavtra
Director : Belarus'fil'm
Recorded date : 1978
Writing application : XviD4PSP 6.0 / 53.6.0
Comment : Lame MP3 44,1 kHz Mono @ 96 kbps
Video
ID : 0
Format : MPEG-4 Visual
Format profile : Advanced [email protected]
Format settings, BVOP : 2
Format settings, QPel : No
Format settings, GMC : No warppoints
Format settings, Matrix : Default (H.263)
Codec ID : DX50
Codec ID/Hint : DivX 5
Duration : 1h 22mn
Bit rate : 2 200 Kbps
Width : 720 pixels
Height : 544 pixels
Display aspect ratio : 4:3
Frame rate : 25.000 fps
Color space : YUV
Chroma subsampling : 4:2:0
Bit depth : 8 bits
Scan type : Progressive
Compression mode : Lossy
Bits/(Pixel*Frame) : 0.225
Stream size : 1.26 GiB (89%)
Writing library : XviD 64
Audio
ID : 1
Format : MPEG Audio
Format version : Version 1
Format profile : Layer 3
Codec ID : 55
Codec ID/Hint : MP3
Duration : 1h 22mn
Bit rate mode : Constant
Bit rate : 256 Kbps
Channel count : 1 channel
Sampling rate : 48.0 KHz
Compression mode : Lossy
Stream size : 151 MiB (10%)
Alignment : Aligned on interleaves
Interleave, duration : 24 ms (0.60 video frame)
Writing library : LAME3.98.2ЄЄЄЄЄЄЄЄЄЄ
Download / Скачать

Хотите скачать бесплатно? Зарегистрируйтесь на сайте (ссылка на регистрацию). Pirat.ca - самый быстрый торрент трекер в рунете!

Как скачивать  ·   Что такое торрент  ·   Рейтинг и ограничения



Последний раз редактировалось: msdos9 (2014-07-23 00:00), всего редактировалось 1 раз

Пост 23-Июл-2014 06:43 (спустя 1 день 8 часов)

Топик был перенесен из форума Наше кино (Трюм) в форум Советское кино
erchine
 

xzxscorpxzx

Флибустьер

Пост 15-Фев-2016 12:31 (спустя 1 год 6 месяцев)

[Q] 

не видел,будем смотреть
[Профиль]  [ЛС] 
Показать сообщения:    
Ответить на тему

Текущее время: Сегодня 20:04

Часовой пояс: GMT + 4



Вы не можете начинать темы
Вы не можете отвечать на сообщения
Вы не можете редактировать свои сообщения
Вы не можете удалять свои сообщения
Вы не можете голосовать в опросах
Вы не можете прикреплять файлы к сообщениям
Вы не можете скачивать файлы

▼ Вниз