ML
     
  Уважаемый Гость!
Вы можете поддержать проект и зарегистрироваться у наших партнеров - онлайн-стратегия MyLands. При регистрации в игре Вы получите код, который сможете активировать после регистрации на pirat.ca и получить 1000 дублонов.

Ваш код:
b70663c760e7cd2521b8e123786cdd788200e3bd
 
     

Злой дух Ямбуя (Борис Бунеев) [1978 г., экранизация, приключения, TVRip]

Ответить на тему
 
Автор
Сообщение

Пост 24-Июл-2014 22:11

[Q] 

msdos9

Юнга

-Злой дух Ямбуя-- Производство: Центральная киностудия детских и юношеских фильмов им. М.Горького
Режиссер: Борис Бунеев
Жанр: экранизация, приключения
Год выпуска: 1978 г.
Продолжительность: 01:28:59
Российская премьера: февраль 1978
В ролях: Юрий Заборовский, Ольга Ензак, Родна Ешонов, Филимон Сергеев, В. Круглов (II), Александр Кавалеров, Николай Куваченок, Николай Дмитриев (II), Зинаида Пикунова-Описание: По повести Григория Федосеева, основанной на реальных событиях. Первые послевоенные годы. В таежных малодоступных лесах Восточной Сибири проводятся геодезические исследования. В лагере экспедиции готовятся к возвращению на базу. Радиограмма из штаба о том, что на гольце Ямбуй бесследно исчез ещё один наблюдатель, заставила изменить планы. В поисках пропавших принимают активное участие местные жители - эвенки, замечательные охотники и следопыты, хорошо знающие тайгу. Мрачные легенды рассказывают жители глухого уголка Восточной Сибири - о злом духе Ямбе, который преследует всех, вступивших на его территорию. Много опасных приключений ждет смельчаков прежде чем они обнаружат истинного виновника трагедии - медведя-людоеда. Неторопливый ритм, красивые и в то же время беспокоящие виды природы, создают тревожную атмосферу подстерегающей на каждом шагу опасности.
-Качество видео: TVRip
Контейнер: AVI
Видео кодек: DivX
Аудио кодек: MP3
Видео: 688x512, 1740 kbps, 25 fps, 0.20 bit/pixel
Аудио: 448 kbps, 1 ch, 48 kHz
Cубтитры: отсутствуют
Format : AVI
Format/Info : Audio Video Interleave
File size : 1.37 GiB
Duration : 1h 28mn
Overall bit rate : 2 199 Kbps
Writing application : VirtualDubMod 1.5.10.2 (build 2542/release)
Writing library : VirtualDubMod build 2542/release
Video
ID : 0
Format : MPEG-4 Visual
Format settings, BVOP : 3
Format settings, QPel : No
Format settings, GMC : No warppoints
Format settings, Matrix : Default (H.263)
Muxing mode : Packed bitstream
Codec ID : DX50
Codec ID/Hint : DivX 5
Duration : 1h 28mn
Bit rate : 1 741 Kbps
Width : 688 pixels
Height : 512 pixels
Display aspect ratio : 4:3
Frame rate : 25.000 fps
Color space : YUV
Chroma subsampling : 4:2:0
Bit depth : 8 bits
Scan type : Progressive
Compression mode : Lossy
Bits/(Pixel*Frame) : 0.198
Stream size : 1.08 GiB (79%)
Writing library : DivX 6.8.2 (UTC 2008-05-17)
Audio
ID : 1
Format : AC-3
Format/Info : Audio Coding 3
Mode extension : CM (complete main)
Format settings, Endianness : Big
Codec ID : 2000
Duration : 1h 28mn
Bit rate mode : Constant
Bit rate : 448 Kbps
Channel count : 6 channels
Channel positions : Front: L C R, Side: L R, LFE
Sampling rate : 48.0 KHz
Bit depth : 16 bits
Compression mode : Lossy
Stream size : 285 MiB (20%)
Alignment : Aligned on interleaves
Interleave, duration : 40 ms (1.00 video frame)
Interleave, preload duration : 512 ms
Download / Скачать

Хотите скачать бесплатно? Зарегистрируйтесь на сайте (ссылка на регистрацию). Pirat.ca - самый быстрый торрент трекер в рунете!

Как скачивать  ·   Что такое торрент  ·   Рейтинг и ограничения

nbdjod

Корсар

34330

Пост 24-Июл-2014 23:15 (спустя 1 час 3 минуты)

[Q] 


_________________
[Профиль]  [ЛС] 

Alien2000

Легенда

Пост 28-Июл-2014 20:04 (спустя 3 дня)

[Q] 

Раздающему респект! Супер!
[Профиль]  [ЛС] 

xzxscorpxzx

Флибустьер

Пост 15-Фев-2016 12:59 (спустя 1 год 6 месяцев)

[Q] 

не видел.глянем
[Профиль]  [ЛС] 
Показать сообщения:    
Ответить на тему

Текущее время: Сегодня 00:19

Часовой пояс: GMT + 4



Вы не можете начинать темы
Вы не можете отвечать на сообщения
Вы не можете редактировать свои сообщения
Вы не можете удалять свои сообщения
Вы не можете голосовать в опросах
Вы не можете прикреплять файлы к сообщениям
Вы не можете скачивать файлы

▼ Вниз