ML
     
  Уважаемый Гость!
Вы можете поддержать проект и зарегистрироваться у наших партнеров - онлайн-стратегия MyLands. При регистрации в игре Вы получите код, который сможете активировать после регистрации на pirat.ca и получить 1000 дублонов.

Ваш код:
e6008d9811a0b6a1393c3dc51ecd7bc35637bc21
 
     

Крушение эмирата (Владимир Басов, Латиф Файзиев) [1955 г., приключения, драма, история, DVDRip, 480p]

Ответить на тему
 
Автор
Сообщение

Пост 25-Июл-2014 22:18

[Q] 

msdos9

Юнга

-Крушение эмирата-- Производство: Мосфильм, Ташкентская киностудия
Режиссер: Владимир Басов, Латиф Файзиев
Жанр: приключения, драма, история
Год выпуска: 1955 г.
Продолжительность: 01:32:14
Российская премьера: 20 июня 1955
В ролях: Евгений Самойлов, Владимир Краснопольский (II), К. Алимджанов, Санат Диванов, Неля Атауллаева, Георгий Юматов, Роза Макагонова, Раззак Хамраев, Абдусалом Рахимов, Мухаммед Черкезов, Григорий Михайлов, Н. Ишмухамедов, Евгений Тетерин, Михаил Пуговкин, Аббас Бакиров, Владимир Балашов, Николай Гарин, Андрей Файт, Кудрат Ходжаев, Обид Джалилов, Сагди Табибуллаев, Шукур Бурханов, Юнона Белоручева, Сайфи Алимов, Саат Талипов, Т. Исламов, Артавазд Кефчиян, Эммануил Геллер, Владимир Горелов, Рахим Пирмухамедов-Описание: 1920 год. Западные державы пытаются использовать Бухарское ханство — бывший протекторат царской России — для борьбы с Советской властью. Прибывшие в Ташкент М.В.Фрунзе и В.В.Куйбышев организуют массы на борьбу с контрреволюционерами и агентами иностранных разведок. Для подпольной работы посылаются преданные делу революции люди, такие, как молодой узбек Шерали...-Качество видео: DVDRip
Контейнер: AVI
Стандарт разрешения: 480p
Видео кодек: XviD
Аудио кодек: MP3
Видео: 640x480 (1.33:1), 25 fps, XviD MPEG-4 ~1849 kbps avg, 0.24 bit/pixel
Аудио: 48 kHz, MPEG Layer 3, 2 ch, ~128.00 kbps avg
Cубтитры: отсутствуют
Очень красивый фильм: и актёры, и костюмы, и пейзажи. Даже злодеи обаятельны. Но больше всех понравился К. Алимджанов в роли вполне положительного Юлдаша Ахунбабаева – сдержан, мужествен, полон достоинства. В фильме ощущается дух Ходжи Насреддина, хотя его там и нет.
Format : AVI
Format/Info : Audio Video Interleave
File size : 1.28 GiB
Duration : 1h 32mn
Overall bit rate : 1 988 Kbps
Director : SATrip by Animat (fenixclub.com)
Writing application : VirtualDubMod 1.5.10.2 (build 2540/release)
Writing library : VirtualDubMod build 2540/release
Video
ID : 0
Format : MPEG-4 Visual
Format profile : Advanced [email protected]
Format settings, BVOP : 2
Format settings, QPel : No
Format settings, GMC : No warppoints
Format settings, Matrix : Default (MPEG)
Muxing mode : Packed bitstream
Codec ID : XVID
Codec ID/Hint : XviD
Duration : 1h 32mn
Bit rate : 1 850 Kbps
Width : 640 pixels
Height : 480 pixels
Display aspect ratio : 4:3
Frame rate : 25.000 fps
Color space : YUV
Chroma subsampling : 4:2:0
Bit depth : 8 bits
Scan type : Progressive
Compression mode : Lossy
Bits/(Pixel*Frame) : 0.241
Stream size : 1.19 GiB (93%)
Writing library : XviD 1.1.2 (UTC 2006-11-01)
Audio
ID : 1
Format : MPEG Audio
Format version : Version 1
Format profile : Layer 3
Mode : Joint stereo
Codec ID : 55
Codec ID/Hint : MP3
Duration : 1h 32mn
Bit rate mode : Constant
Bit rate : 128 Kbps
Channel count : 2 channels
Sampling rate : 48.0 KHz
Compression mode : Lossy
Stream size : 84.4 MiB (6%)
Alignment : Aligned on interleaves
Interleave, duration : 40 ms (1.00 video frame)
Interleave, preload duration : 504 ms
Download / Скачать

Хотите скачать бесплатно? Зарегистрируйтесь на сайте (ссылка на регистрацию). Pirat.ca - самый быстрый торрент трекер в рунете!

Как скачивать  ·   Что такое торрент  ·   Рейтинг и ограничения

Пост 26-Июл-2014 10:33 (спустя 12 часов)

Топик был перенесен из форума Наше кино (Трюм) в форум Советское кино
kugesan
 

Alien2000

Легенда

Пост 28-Июл-2014 20:03 (спустя 2 дня 21 час)

[Q] 

!COOL!
Еще не видел и даже не слышал. :-)
Спасибо.
[Профиль]  [ЛС] 

xzxscorpxzx

Флибустьер

Пост 15-Фев-2016 12:48 (спустя 1 год 6 месяцев)

[Q] 

хороший фильм
[Профиль]  [ЛС] 
Показать сообщения:    
Ответить на тему

Текущее время: Сегодня 02:05

Часовой пояс: GMT + 4



Вы не можете начинать темы
Вы не можете отвечать на сообщения
Вы не можете редактировать свои сообщения
Вы не можете удалять свои сообщения
Вы не можете голосовать в опросах
Вы не можете прикреплять файлы к сообщениям
Вы не можете скачивать файлы

▼ Вниз