ML
     
  Уважаемый Гость!
Вы можете поддержать проект и зарегистрироваться у наших партнеров - онлайн-стратегия MyLands. При регистрации в игре Вы получите код, который сможете активировать после регистрации на pirat.ca и получить 1000 дублонов.

Ваш код:
5af7de75d3db09b6a37bc8bab71b0e87ccde73d6
 
     

В начале века (Анатолий Рыбаков) [1961 г., биография, исторический фильм, киноповесть, DVDRip]

Ответить на тему
 
Автор
Сообщение

Пост 31-Июл-2014 20:35

[Q] 

msdos9

Юнга

-В начале века-- Производство: Мосфильм
Режиссер: Анатолий Рыбаков
Жанр: биография, исторический фильм, киноповесть
Год выпуска: 1961 г.
Продолжительность: 01:23:28
Российская премьера: 21 апреля 1961
В ролях: Юрий Каюров, Елена Ситко, Николай Анненков, Софья Пилявская, Глеб Стриженов, Виктор Авдюшко, Афанасий Кочетков, Миша Человеков, Варвара Обухова, Владимир Горелов, Галина Кравченко, Станислав Чекан, Лев Степанов, Валентина Ананьина, Юлиана Бугаева, Иван Воронов, Виктория Духина, Леонид Евтифьев, Сергей Калинин, Станислав Коренев, Сергей Кулагин, Николай Никитич, Григорий Плужник, Иван Соловьёв, Гурген Тонунц, Михаил Семенихин, Ирина Ликсо, Александра Денисова, Георгий Светлани-Описание: Фильм повествует о жизни и деятельности молодого В.И.Ленина и его жены Н.К.Крупской в сибирской ссылке (село Шушенское), а затем в Петербурге. Эпизоды их жизни во время первой эмиграции в Женеве и Мюнхене, где Ленин встречался с Плехановым и налаживал выпуск первой общерусской газеты РСДРП "Искра".-Качество видео: DVDRip
Контейнер: AVI
Видео кодек: XviD
Аудио кодек: MP3
Видео: 720x552 (1.30:1), 25 fps, XviD build 50 ~1999 kbps avg, 0.20 bit/pixel
Аудио: 48 kHz, MPEG Layer 3, 1 ch, ~64.00 kbps avg
Cубтитры: отсутствуют
Первая роль в кино Юрия Каюрова, впоследствии сыгравшего Ленина в 18-ти фильмах.
Format : AVI
Format/Info : Audio Video Interleave
File size : 1.21 GiB
Duration : 1h 23mn
Overall bit rate : 2 073 Kbps
Writing application : VirtualDubModRus 1.5.10.2 (build 2540/release)
Writing library : VirtualDubMod build 2540/release
Video
ID : 0
Format : MPEG-4 Visual
Format profile : Advanced [email protected]
Format settings, BVOP : 3
Format settings, QPel : No
Format settings, GMC : No warppoints
Format settings, Matrix : Default (H.263)
Codec ID : XVID
Codec ID/Hint : XviD
Duration : 1h 23mn
Bit rate : 2 000 Kbps
Width : 720 pixels
Height : 552 pixels
Display aspect ratio : 4:3
Frame rate : 25.000 fps
Color space : YUV
Chroma subsampling : 4:2:0
Bit depth : 8 bits
Scan type : Progressive
Compression mode : Lossy
Bits/(Pixel*Frame) : 0.201
Stream size : 1.17 GiB (96%)
Writing library : XviD 1.2.1 (UTC 2008-12-04)
Audio
ID : 1
Format : MPEG Audio
Format version : Version 1
Format profile : Layer 3
Codec ID : 55
Codec ID/Hint : MP3
Duration : 1h 23mn
Bit rate mode : Constant
Bit rate : 64.0 Kbps
Channel count : 1 channel
Sampling rate : 48.0 KHz
Compression mode : Lossy
Stream size : 38.2 MiB (3%)
Download / Скачать

Хотите скачать бесплатно? Зарегистрируйтесь на сайте (ссылка на регистрацию). Pirat.ca - самый быстрый торрент трекер в рунете!

Как скачивать  ·   Что такое торрент  ·   Рейтинг и ограничения

Пост 31-Июл-2014 21:05 (спустя 30 минут)

Топик был перенесен из форума Наше кино (Трюм) в форум Советское кино
kugesan
 

xzxscorpxzx

Флибустьер

Пост 15-Фев-2016 13:35 (спустя 1 год 6 месяцев)

[Q] 

классика.смотрим
[Профиль]  [ЛС] 
Показать сообщения:    
Ответить на тему

Текущее время: Сегодня 14:13

Часовой пояс: GMT + 4



Вы не можете начинать темы
Вы не можете отвечать на сообщения
Вы не можете редактировать свои сообщения
Вы не можете удалять свои сообщения
Вы не можете голосовать в опросах
Вы не можете прикреплять файлы к сообщениям
Вы не можете скачивать файлы

▼ Вниз