ML
     
  Уважаемый Гость!
Вы можете поддержать проект и зарегистрироваться у наших партнеров - онлайн-стратегия MyLands. При регистрации в игре Вы получите код, который сможете активировать после регистрации на pirat.ca и получить 1000 дублонов.

Ваш код:
ee1288b6f7c09d9d2cb2a0f972aba30460ce9333
 
     

Акванавты (Игорь Вознесенский) [1979 г., приключения, фантастика, DVDRip]

Ответить на тему
 
Автор
Сообщение

Пост 12-Сен-2014 15:54

[Q] 

Мархуз

-Акванавты-- Производство: СССР, Киностудия им. М. Горького
Режиссер: Игорь Вознесенский
Жанр: приключения, фантастика
Год выпуска: 1979 г.
Продолжительность: 01:16:04
В ролях: Герман Полосков, Александр Яковлев, Вацлав Дворжецкий, Артем Карапетян, Игорь Вознесенский, Николай Крюков, Паул Буткевич, Елена Валаева, Ирен Азер, Арнис Лицитис, Владимир Никитин, Юрий Саранцев, Геннадий Петров, Регина Разума-Описание: "Быть впереди, но никогда не возвысить себя над человечеством" - такой девиз и присяга акванавтов-исследователей. В результате экспериментов профессора Керома матрица памяти его погибшей дочери Лотты оказалась в самолете, который в результате крушения затонул в океане, неподалеку от океанологической станции. А там свои проблемы: детеныш глубоководной рыбы - королевской манты - не дает покоя станции. Ученым предстоит раскрыть эту тайну...-Качество видео: DVDRip
Контейнер: AVI
Видео кодек: XviD
Аудио кодек: MP3
Видео: 640x336; 1228 kbps; 25 fps; 0.228 bit/pixel
Аудио: 128 kbps; 2 ch; 48 kHz
Cубтитры: отсутствуют
General
Complete name : E:\Torrent\Akvanavti_[Pirat.ca].torrent.avi
Format : AVI
Format/Info : Audio Video Interleave
File size : 743 MiB
Duration : 1h 16mn
Overall bit rate : 1 366 Kbps
Writing application : VirtualDubMod 1.5.10.2 (build 2540/release)
Writing library : VirtualDubMod build 2540/release
Video
ID : 0
Format : MPEG-4 Visual
Format profile : Advanced [email protected]
Format settings, BVOP : 2
Format settings, QPel : No
Format settings, GMC : No warppoints
Format settings, Matrix : Default (MPEG)
Muxing mode : Packed bitstream
Codec ID : XVID
Codec ID/Hint : XviD
Duration : 1h 16mn
Bit rate : 1 228 Kbps
Width : 640 pixels
Height : 336 pixels
Display aspect ratio : 1.905
Frame rate : 25.000 fps
Color space : YUV
Chroma subsampling : 4:2:0
Bit depth : 8 bits
Scan type : Progressive
Compression mode : Lossy
Bits/(Pixel*Frame) : 0.228
Stream size : 668 MiB (90%)
Writing library : XviD 1.2.1 (UTC 2008-12-04)
Audio
ID : 1
Format : MPEG Audio
Format version : Version 1
Format profile : Layer 3
Mode : Joint stereo
Mode extension : MS Stereo
Codec ID : 55
Codec ID/Hint : MP3
Duration : 1h 16mn
Bit rate mode : Constant
Bit rate : 128 Kbps
Channel(s) : 2 channels
Sampling rate : 48.0 KHz
Compression mode : Lossy
Delay relative to video : 96ms
Stream size : 69.6 MiB (9%)
Alignment : Aligned on interleaves
Interleave, duration : 40 ms (1.00 video frame)
Interleave, preload duration : 504 ms
Раздача с 14.00 до 2.30 (время московское)
Download / Скачать

Хотите скачать бесплатно? Зарегистрируйтесь на сайте (ссылка на регистрацию). Pirat.ca - самый быстрый торрент трекер в рунете!

Как скачивать  ·   Что такое торрент  ·   Рейтинг и ограничения

Пост 12-Сен-2014 16:43 (спустя 49 минут)

Топик был перенесен из форума Наше кино (Трюм) в форум Советское кино
ara1205
 

DellFlyer

Флибустьер

165

Пост 12-Сен-2014 23:00 (спустя 7 часов)

[Q] 

Листая новости портала прочёл "Алканавты" ag
Извиняюсь за оффтоп, не смог удержаться...
[Профиль]  [ЛС] 

Мархуз ®

4505

Пост 27-Сен-2014 14:00 (спустя 14 дней)

[Q] 

DellFlyer, так может это в оформлении опечатка. может настоящие название и есть то, что тебе показалось. ad

_________________

Счастье для всех, даром, и пусть никто не уйдёт обиженный
[Профиль]  [ЛС] 

xzxscorpxzx

Флибустьер

Пост 15-Фев-2016 11:25 (спустя 1 год 4 месяца)

[Q] 

не смотрел,качнем)
[Профиль]  [ЛС] 
Показать сообщения:    
Ответить на тему

Текущее время: Сегодня 18:21

Часовой пояс: GMT + 4



Вы не можете начинать темы
Вы не можете отвечать на сообщения
Вы не можете редактировать свои сообщения
Вы не можете удалять свои сообщения
Вы не можете голосовать в опросах
Вы не можете прикреплять файлы к сообщениям
Вы не можете скачивать файлы

▼ Вниз