ML
     
  Уважаемый Гость!
Вы можете поддержать проект и зарегистрироваться у наших партнеров - онлайн-стратегия MyLands. При регистрации в игре Вы получите код, который сможете активировать после регистрации на pirat.ca и получить 1000 дублонов.

Ваш код:
c89b4b6523eaac3173e9a9c062ac1a19db575961
 
     

Ларец Марии Медичи (Рудольф Фрунтов) [1980 г., детектив, DVDRip]

Ответить на тему
 
Автор
Сообщение

Пост 16-Сен-2014 12:10

[Q] 

Мархуз

-Ларец Марии Медичи-- Производство: СССР, Мосфильм
Режиссер: Рудольф Фрунтов
Жанр: детектив
Год выпуска: 1980 г.
Продолжительность: 01:26:16
В ролях: Валерий Рыжаков, Клара Лучко, Эммануил Виторган, Евдокия Урусова, Анатолий Егоров, Рубен Симонов, Всеволод Сафонов, Сергей Мартынов, Даниил Нетребин, Лев Поляков, Станислав Захаров, Надежда Хиль, Леонид Оболенский, Герасим Лисициан, Николай Ерофеев, Виктор Зозулин, Алла Балтер, Павел Иванов, Зоя Василькова, Виктор Шульгин, Владимир Пицек, Виктор Маркин, Олег Чайка, Владимир Комиссаров, Настя Гладкова-Описание: После, казалось бы, незначительного ограбления (у одинокой старушки похитили старинный ларец) бесследно исчезает и приехавший в Ленинград известный в мире антикварного бизнеса француз Андре Савиньи (он же - Андрей Свиньин, сын русских эмигрантов первой "волны", воевавший на стороне нацистов во время Второй мировой войны). Отыскать пропажи предстоит капитану милиции Люсину. По ходу расследования приходится выяснить не только мотивы преступления, но и погрузиться в далекое прошлое, разгадать тайну сокровищ альбигойцев...-Качество видео: DVDRip
Контейнер: AVI
Видео кодек: DivX
Аудио кодек: AC3
Видео: 720x320; 2039 kbps; 25 fps; 0.354 bit/pixel
Аудио: 192 kbps; 2 ch ; 48 kHz
Cубтитры: отсутствуют
General
Complete name : E:\Torrent\Larec_Marii_Medichi_[Pirat.ca].torrent.avi
Format : AVI
Format/Info : Audio Video Interleave
File size : 1.35 GiB
Duration : 1h 26mn
Overall bit rate : 2 241 Kbps
Writing application : VirtualDubMod 1.5.4.1 (build 2178/release)
Writing library : VirtualDub build 22945/release
Video
ID : 0
Format : MPEG-4 Visual
Format settings, BVOP : Yes
Format settings, QPel : No
Format settings, GMC : No warppoints
Format settings, Matrix : Default (H.263)
Codec ID : DX50
Codec ID/Hint : DivX 5
Duration : 1h 26mn
Bit rate : 2 039 Kbps
Width : 720 pixels
Height : 320 pixels
Display aspect ratio : 2.25:1
Frame rate : 25.000 fps
Color space : YUV
Chroma subsampling : 4:2:0
Bit depth : 8 bits
Scan type : Progressive
Compression mode : Lossy
Bits/(Pixel*Frame) : 0.354
Stream size : 1.23 GiB (91%)
Writing library : DivX 6.1.0 (UTC 2005-12-12)
Audio
ID : 1
Format : AC-3
Format/Info : Audio Coding 3
Mode extension : CM (complete main)
Format settings, Endianness : Big
Codec ID : 2000
Duration : 1h 26mn
Bit rate mode : Constant
Bit rate : 192 Kbps
Channel(s) : 2 channels
Channel positions : Front: L R
Sampling rate : 48.0 KHz
Bit depth : 16 bits
Compression mode : Lossy
Stream size : 118 MiB (9%)
Alignment : Split accross interleaves
Interleave, duration : 40 ms (1.00 video frame)
Interleave, preload duration : 500 ms
Раздача с 14.00 до 2.30 (время московское)
Download / Скачать

Хотите скачать бесплатно? Зарегистрируйтесь на сайте (ссылка на регистрацию). Pirat.ca - самый быстрый торрент трекер в рунете!

Как скачивать  ·   Что такое торрент  ·   Рейтинг и ограничения

Пост 16-Сен-2014 15:47 (спустя 3 часа)

Топик был перенесен из форума Наше кино (Трюм) в форум Советское кино
LPPI
 

СерКат

Корсар

Пост 09-Май-2015 01:13 (спустя 7 месяцев 22 дня)

[Q] 

смотрел несколько раз ,интересный детектив
[Профиль]  [ЛС] 
Показать сообщения:    
Ответить на тему

Текущее время: Сегодня 22:34

Часовой пояс: GMT + 4



Вы не можете начинать темы
Вы не можете отвечать на сообщения
Вы не можете редактировать свои сообщения
Вы не можете удалять свои сообщения
Вы не можете голосовать в опросах
Вы не можете прикреплять файлы к сообщениям
Вы не можете скачивать файлы

▼ Вниз