ML
     
  Уважаемый Гость!
Вы можете поддержать проект и зарегистрироваться у наших партнеров - онлайн-стратегия MyLands. При регистрации в игре Вы получите код, который сможете активировать после регистрации на pirat.ca и получить 1000 дублонов.

Ваш код:
a978488e62322cd72e113ab723b8a7fdc10eb9b9
 
     

Деревенский детектив (Иван Лукинский) [1968 г., комедия, детектив, DVDRip]

Ответить на тему
 
Автор
Сообщение

Пост 20-Сен-2014 14:17

[Q] 

Мархуз

-Деревенский детектив-- Производство: СССР, Киностудия им. М. Горького
Режиссер: Иван Лукинский
Жанр: комедия, детектив
Год выпуска: 1968 г.
Продолжительность: 01:21:59
В ролях: Михаил Жаров, Татьяна Пельтцер, Наталья Сайко, Роман Ткачук, Лидия Смирнова, Анатолий Кубацкий, Ирина Зарубина, Юрий Смирнов, Олеся Иванова, Анатолий Игнатьев, Вадим Власов, Николай Маликов, Владимир Пицек, Клавдия Козленкова, Георгий Слабиняк, Александр Милютин, Николай Скоробогатов, Афанасий Белов, Александра Харитонова.-Описание: У заведующего сельским клубом украли аккордеон. Для колхоза такое событие — практически «преступление века», аккордеон стоит больше, чем хорошая корова, по словам участкового Анискина. Он берется раскрыть это преступление. Подозрение падает на соперника заведующего - они оба ищут любви продавщицы местного магазина…-Качество видео: DVDRip
Контейнер: AVI
Видео кодек: DivX
Аудио кодек: AC3
Видео: 720x320; 1994 kbps; 25 fps; 0.346 bit/pixel
Аудио: 384 kbps; 6 ch; 48 kHz
Cубтитры: отсутствуют
1969 г. - на IV Всесоюзном кинофестивале в Минске фильм получил приз и премию как лучшая комедия. Исполнитель роли Анискина Михаил Жаров получил почётный диплом и диплом жюри кинофестиваля.
General
Complete name : E:\Torrent\Derevenskiy_detektiv_[Pirat.ca].torrent.avi
Format : AVI
Format/Info : Audio Video Interleave
File size : 1.37 GiB
Duration : 1h 21mn
Overall bit rate : 2 388 Kbps
Writing application : VirtualDubModRus 1.5.10.2 (build 2542/release)
Writing library : VirtualDubMod build 2542/release
Video
ID : 0
Format : MPEG-4 Visual
Format settings, BVOP : Yes
Format settings, QPel : No
Format settings, GMC : No warppoints
Format settings, Matrix : Default (H.263)
Codec ID : DX50
Codec ID/Hint : DivX 5
Duration : 1h 21mn
Bit rate : 1 994 Kbps
Width : 720 pixels
Height : 320 pixels
Display aspect ratio : 2.25:1
Frame rate : 25.000 fps
Color space : YUV
Chroma subsampling : 4:2:0
Bit depth : 8 bits
Scan type : Progressive
Compression mode : Lossy
Bits/(Pixel*Frame) : 0.346
Stream size : 1.14 GiB (84%)
Writing library : DivX 6.8.3-6.8.4 (UTC 2008-06-07)
Audio
ID : 1
Format : AC-3
Format/Info : Audio Coding 3
Mode extension : CM (complete main)
Format settings, Endianness : Big
Codec ID : 2000
Duration : 1h 21mn
Bit rate mode : Constant
Bit rate : 384 Kbps
Channel(s) : 6 channels
Channel positions : Front: L C R, Side: L R, LFE
Sampling rate : 48.0 KHz
Bit depth : 16 bits
Compression mode : Lossy
Stream size : 225 MiB (16%)
Alignment : Aligned on interleaves
Interleave, duration : 40 ms (1.00 video frame)
Interleave, preload duration : 512 ms
Раздача с 14.00 до 2.30 (время московское)
Download / Скачать

Хотите скачать бесплатно? Зарегистрируйтесь на сайте (ссылка на регистрацию). Pirat.ca - самый быстрый торрент трекер в рунете!

Как скачивать  ·   Что такое торрент  ·   Рейтинг и ограничения

Пост 20-Сен-2014 16:43 (спустя 2 часа 25 минут)

Топик был перенесен из форума Наше кино (Трюм) в форум Советское кино
LPPI
 

xzxscorpxzx

Флибустьер

Пост 15-Фев-2016 13:38 (спустя 1 год 4 месяца)

[Q] 

отличный фильм!
[Профиль]  [ЛС] 
Показать сообщения:    
Ответить на тему

Текущее время: Сегодня 22:05

Часовой пояс: GMT + 4



Вы не можете начинать темы
Вы не можете отвечать на сообщения
Вы не можете редактировать свои сообщения
Вы не можете удалять свои сообщения
Вы не можете голосовать в опросах
Вы не можете прикреплять файлы к сообщениям
Вы не можете скачивать файлы

▼ Вниз