ML
     
  Уважаемый Гость!
Вы можете поддержать проект и зарегистрироваться у наших партнеров - онлайн-стратегия MyLands. При регистрации в игре Вы получите код, который сможете активировать после регистрации на pirat.ca и получить 1000 дублонов.

Ваш код:
a261790f23fb05d13d060bdee9cb70d1451a6d3d
 
     

Знак беды (Михаил Пташук) [1987 г., военный, драма, DVDRip]

Ответить на тему
 
Автор
Сообщение

Пост 26-Сен-2014 16:28

[Q] 

Мархуз

-Знак беды-- Производство: СССР, Беларусьфильм
Режиссер: Михаил Пташук
Жанр: военный, драма
Год выпуска: 1987 г.
Продолжительность: 02:23:18
В ролях: Нина Русланова, Геннадий Гарбук, Виталий Быков, Владимир Гостюхин, Алексей Зайцев, Владимир Ильин, Евгений Платохин, Владимир Емельянов, Алексей Булдаков-Описание: Белорусскую деревню Выселки, где живет Степанида и её муж Петрок, заняли гитлеровцы. Не выдержав издевательств фашистов, Петрок идёт на открытый протест и погибает. Поняв, что надежды на спасение уже нет, Степанида принимает непростое решение….-Качество видео: DVDRip
Контейнер: AVI
Видео кодек: XviD
Аудио кодек: AC3
Видео: 640x464; 641 kbps; 25 fps; 0.086 bit/pixel
Аудио: 384 kbps; 2 ch; 48 kHz
Cубтитры: отсутствуют
1986 г. - МКФ в Сопоте. Главный приз "Статуя свободы".
1987 г. - Международная премия BBC. Приз за лучшую зарубежную картину.
1987 г. - Премия «Ника» За лучшую женскую роль (Нина Русланова).
1988 г. - Золотая медаль им. Довженко
1988 г – Государственная премия Белорусской ССР.
General
Complete name : E:\Torrent\Znak_bedi_[Pirat.ca].torrent.avi
Format : AVI
Format/Info : Audio Video Interleave
File size : 1.04 GiB
Duration : 2h 23mn
Overall bit rate : 1 035 Kbps
Writing application : FairUse Wizard - http://fairusewizard.com
Writing library : VirtualDub build 35390/release
Video
ID : 0
Format : MPEG-4 Visual
Format profile : Advanced [email protected]
Format settings, BVOP : 2
Format settings, QPel : No
Format settings, GMC : No warppoints
Format settings, Matrix : Default (H.263)
Muxing mode : Packed bitstream
Codec ID : XVID
Codec ID/Hint : XviD
Duration : 2h 23mn
Bit rate : 641 Kbps
Width : 640 pixels
Height : 464 pixels
Display aspect ratio : 1.379
Frame rate : 25.000 fps
Color space : YUV
Chroma subsampling : 4:2:0
Bit depth : 8 bits
Scan type : Progressive
Compression mode : Lossy
Bits/(Pixel*Frame) : 0.086
Stream size : 657 MiB (62%)
Writing library : XviD 64
Audio
ID : 1
Format : AC-3
Format/Info : Audio Coding 3
Mode extension : CM (complete main)
Format settings, Endianness : Big
Codec ID : 2000
Duration : 2h 23mn
Bit rate mode : Constant
Bit rate : 384 Kbps
Channel(s) : 2 channels
Channel positions : Front: L R
Sampling rate : 48.0 KHz
Bit depth : 16 bits
Compression mode : Lossy
Stream size : 394 MiB (37%)
Alignment : Split accross interleaves
Interleave, duration : 40 ms (1.00 video frame)
Interleave, preload duration : 500 ms
Раздача с 14.00 до 2.30 (время московское)
Download / Скачать

Хотите скачать бесплатно? Зарегистрируйтесь на сайте (ссылка на регистрацию). Pirat.ca - самый быстрый торрент трекер в рунете!

Как скачивать  ·   Что такое торрент  ·   Рейтинг и ограничения

vovan200976

Флибустьер

Пост 26-Сен-2014 16:46 (спустя 18 минут)

[Q] 

Фильм хороший , но недавно аудиокнигу слушал!!
[Профиль]  [ЛС] 

gross1978

6968

Пост 26-Сен-2014 17:07 (спустя 20 минут)

[Q] 

Спасибо за релиз! Сильная книга Василя Быкова, помню в школе проходили ее.

_________________
Употребляйте правильно слова, и вы избавите мир от половины недоразумений (Р.Декарт).
Переводим фильмы тут: Создание тем на перевод (форум)
Если у Вас есть переводы в авторском, которых нет в моих раздачах и желание ими поделиться, пишите, добавим:)
[Профиль]  [ЛС] 

Пост 26-Сен-2014 18:32 (спустя 1 час 25 минут)

Топик был перенесен из форума Наше кино (Трюм) в форум Советское кино
kugesan
 

xzxscorpxzx

Флибустьер

Пост 15-Фев-2016 11:24 (спустя 1 год 4 месяца)

[Q] 

отличный фильм!
[Профиль]  [ЛС] 
Показать сообщения:    
Ответить на тему

Текущее время: Сегодня 20:04

Часовой пояс: GMT + 4



Вы не можете начинать темы
Вы не можете отвечать на сообщения
Вы не можете редактировать свои сообщения
Вы не можете удалять свои сообщения
Вы не можете голосовать в опросах
Вы не можете прикреплять файлы к сообщениям
Вы не можете скачивать файлы

▼ Вниз