ML
     
  Уважаемый Гость!
Вы можете поддержать проект и зарегистрироваться у наших партнеров - онлайн-стратегия MyLands. При регистрации в игре Вы получите код, который сможете активировать после регистрации на pirat.ca и получить 1000 дублонов.

Ваш код:
ea554e7ed3eacceeae87a8b30a9de3f086c18a84
 
     

Долг (Анатолий Ниточкин) [1977 г., военный, DVDRip]

Ответить на тему
 
Автор
Сообщение

Пост 04-Окт-2014 15:01

[Q] 

Мархуз

-Долг-- Производство: СССР, Творческое объединение "Экран"
Режиссер: Анатолий Ниточкин
Жанр: военный
Год выпуска: 1977 г.
Продолжительность: 01:19:38
В ролях: Виктор Уральский, Валентин Никулин, Николай Олялин, Александр Борисов, Юрий Назаров, Леонид Марков, Лариса Лужина, Анвар Молдабеков, Болот Бейшеналиев, Римма Кабдалиева, Алексей Мокроусов-Описание: Комиссару Селиванову и нескольким красноармейцам удается бежать из плена. Их преследуют белогвардейцы и басмачи во главе с полковником, которого в своё время освободил под честное слово Селиванов. Спасаясь, красноармейцы захватывают тачанку, в которой находят грудного ребенка, и рискуя жизнью, делают все, чтобы спасти его….-Качество видео: DVDRip
Контейнер: AVI
Видео кодек: XviD
Аудио кодек: MP3
Видео: 720x544; 1800 kbps; 25 fps; 0.184 bit/pixel
Аудио: 56 kbps; 1 ch; 28 kHz
Cубтитры: отсутствуют
General
Complete name : E:\Torrent\Dolg_[Pirat.ca].torrent.avi
Format : AVI
Format/Info : Audio Video Interleave
File size : 1.04 GiB
Duration : 1h 19mn
Overall bit rate : 1 865 Kbps
Writing application : VirtualDubModRus 1.5.10.2 (build 2540/release)
Writing library : VirtualDubMod build 2540/release
Video
ID : 0
Format : MPEG-4 Visual
Format profile : [email protected]
Format settings, BVOP : No
Format settings, QPel : No
Format settings, GMC : No warppoints
Format settings, Matrix : Default (H.263)
Codec ID : XVID
Codec ID/Hint : XviD
Duration : 1h 19mn
Bit rate : 1 800 Kbps
Width : 720 pixels
Height : 544 pixels
Display aspect ratio : 4:3
Frame rate : 25.000 fps
Color space : YUV
Chroma subsampling : 4:2:0
Bit depth : 8 bits
Scan type : Progressive
Compression mode : Lossy
Bits/(Pixel*Frame) : 0.184
Stream size : 1.00 GiB (96%)
Writing library : XviD 1.1.0 Beta2 (UTC 2005-04-04)
Audio
ID : 1
Format : MPEG Audio
Format version : Version 2
Format profile : Layer 3
Codec ID : 55
Codec ID/Hint : MP3
Duration : 1h 19mn
Bit rate mode : Constant
Bit rate : 56.0 Kbps
Channel(s) : 1 channel
Sampling rate : 24.0 KHz
Compression mode : Lossy
Stream size : 31.9 MiB (3%)
Alignment : Aligned on interleaves
Interleave, duration : 40 ms (1.00 video frame)
Interleave, preload duration : 504 ms
Раздача с 14.00 до 2.30 (время московское)
Download / Скачать

Хотите скачать бесплатно? Зарегистрируйтесь на сайте (ссылка на регистрацию). Pirat.ca - самый быстрый торрент трекер в рунете!

Как скачивать  ·   Что такое торрент  ·   Рейтинг и ограничения

Пост 04-Окт-2014 18:19 (спустя 3 часа)

Топик был перенесен из форума Наше кино (Трюм) в форум Советское кино
TERMOS
 

xzxscorpxzx

Флибустьер

Пост 15-Фев-2016 11:31 (спустя 1 год 4 месяца)

[Q] 

хороший фильм
[Профиль]  [ЛС] 
Показать сообщения:    
Ответить на тему

Текущее время: Сегодня 12:07

Часовой пояс: GMT + 4



Вы не можете начинать темы
Вы не можете отвечать на сообщения
Вы не можете редактировать свои сообщения
Вы не можете удалять свои сообщения
Вы не можете голосовать в опросах
Вы не можете прикреплять файлы к сообщениям
Вы не можете скачивать файлы

▼ Вниз