ML
     
  Уважаемый Гость!
Вы можете поддержать проект и зарегистрироваться у наших партнеров - онлайн-стратегия MyLands. При регистрации в игре Вы получите код, который сможете активировать после регистрации на pirat.ca и получить 1000 дублонов.

Ваш код:
73640f24f8a0f579e128ea7346fd2db2b1009143
 
     

Чёрный треугольник (3 серии) (Сергей Тарасов) [1981 г., детектив, DVDRip]

Ответить на тему
 
Автор
Сообщение

Пост 11-Окт-2014 14:39

[Q] 

Мархуз

-Чёрный треугольник (3 серии)-- Производство: СССР, Мосфильм
Режиссер: Сергей Тарасов
Жанр: детектив
Год выпуска: 1981 г.
Продолжительность: 3 х 01:04:11
В ролях: Константин Григорьев, Анатолий Ромашин, Жанна Болотова, Ольга Барнет, Леонид Кулагин, Альгимантас Масюлис, Борис Химичев, Юрий Смирнов, Виктор Чеботарев, Алексей Миронов, Борис Хмельницкий, Всеволод Сафонов, Николай Дупак, А. Мацкевичуте, Юрий Дубровин-Описание: В январе 1918 года происходит одно из самых громких преступлений первых лет после Октябрьской социалистической революции - ограбление Патриаршей ризницы Московского кремля. Следствие ведёт группа МУРа во главе с Леонидом Косачевским. Но коллекция уникальных бриллиантов и золотые оклады икон будто исчезли бесследно. Есть только одна ниточка - табакерка с фамильным гербом рода Мессмеров, обронённая кем-то под окнами ризницы...-Качество видео: DVDRip
Контейнер: AVI
Видео кодек: XviD
Аудио кодек: MP3
Видео: 720x572; 1300 kbps; 25 fps; 0.126 bit/pixel
Аудио: 128 kbps; 2 ch; 44.1 kHz
Cубтитры: отсутствуют
1 серия:
General
Complete name : E:\Torrent\Cherniy_treugolnik_[Pirat.ca].torrent\1 серия.avi
Format : AVI
Format/Info : Audio Video Interleave
File size : 651 MiB
Duration : 1h 3mn
Overall bit rate : 1 440 Kbps
Writing application : Lavf52.22.1
Video
ID : 0
Format : MPEG-4 Visual
Format profile : [email protected]
Format settings, BVOP : No
Format settings, QPel : No
Format settings, GMC : No warppoints
Format settings, Matrix : Default (H.263)
Codec ID : XVID
Codec ID/Hint : XviD
Duration : 1h 3mn
Bit rate : 1 300 Kbps
Width : 720 pixels
Height : 572 pixels
Display aspect ratio : 5:4
Frame rate : 25.000 fps
Color space : YUV
Chroma subsampling : 4:2:0
Bit depth : 8 bits
Scan type : Progressive
Compression mode : Lossy
Bits/(Pixel*Frame) : 0.126
Stream size : 588 MiB (90%)
Writing library : Lavc52.0.0
Audio
ID : 1
Format : MPEG Audio
Format version : Version 1
Format profile : Layer 3
Codec ID : 55
Codec ID/Hint : MP3
Duration : 1h 3mn
Bit rate mode : Constant
Bit rate : 128 Kbps
Channel(s) : 2 channels
Sampling rate : 44.1 KHz
Compression mode : Lossy
Stream size : 57.9 MiB (9%)
Alignment : Aligned on interleaves
Interleave, duration : 26 ms (0.65 video frame)
Раздача с 14.00 до 2.30 (время московское)
Download / Скачать

Хотите скачать бесплатно? Зарегистрируйтесь на сайте (ссылка на регистрацию). Pirat.ca - самый быстрый торрент трекер в рунете!

Как скачивать  ·   Что такое торрент  ·   Рейтинг и ограничения

Пост 11-Окт-2014 20:28 (спустя 5 часов)

Топик был перенесен из форума Наше кино (Трюм) в форум Советское кино
kugesan
 

xzxscorpxzx

Флибустьер

Пост 15-Фев-2016 11:33 (спустя 1 год 4 месяца)

[Q] 

хороший фильм!
[Профиль]  [ЛС] 
Показать сообщения:    
Ответить на тему

Текущее время: Сегодня 22:30

Часовой пояс: GMT + 4



Вы не можете начинать темы
Вы не можете отвечать на сообщения
Вы не можете редактировать свои сообщения
Вы не можете удалять свои сообщения
Вы не можете голосовать в опросах
Вы не можете прикреплять файлы к сообщениям
Вы не можете скачивать файлы

▼ Вниз