ML
     
  Уважаемый Гость!
Вы можете поддержать проект и зарегистрироваться у наших партнеров - онлайн-стратегия MyLands. При регистрации в игре Вы получите код, который сможете активировать после регистрации на pirat.ca и получить 1000 дублонов.

Ваш код:
0fcd44bd35319f69313aa6e53b31c51cbff1c942
 
     

Живые и мёртвые (2 серии) (Александр Столпер) [1964 г., военный, DVDRip]

Ответить на тему
 
Автор
Сообщение

Пост 15-Окт-2014 13:41

[Q] 

Мархуз

-Живые и мёртвые (2 серии)-- Производство: СССР, Мосфильм
Режиссер: Александр Столпер
Жанр: военный
Год выпуска: 1964 г.
Продолжительность: 03:08:38
В ролях: Кирилл Лавров, Владлен Паулус, Юрий Волков, Анатолий Папанов, Олег Ефремов, Люд-мила Крылова, Олег Табаков, Виктор Авдюшко, Арина Алейникова, Игорь Пушкарев, Борис Чирков, Евгений Самойлов, Михаил Глузский, Евгений Шутов, Михаил Ульянов, Роман Хомятов, Любовь Соколова, Лев Круглый, Борис Юрченко, Владимир Высоцкий, Алексей Глазырин, Зиновий Высоковский-Описание: Известие о начале войны переданное по радио спустя несколько часов после вероломного нападения фашистской Германии, застаЁт корреспондента Ивана Синцова и его жену во время отдыха на юге. Он возвращается на работу, и редакция отправляет Синцова на фронт. Его задача - писать очерки и репортажи о боевых действиях, жизни солдат, их под-вигах и поражениях. Иван становится свидетелем самых тяжелых событий этой страшной войны - многочисленных отступлений 1941 года. Он пытается понять причину неудач советских воинов...-Качество видео: DVDRip
Контейнер: AVI
Видео кодек: DivX
Аудио кодек: MP3
Видео: 608x336; 1406 kbps; 25 fps; 0.275 bit/pixel
Аудио: 128 kbps; 2 ch; 48 kHz
Cубтитры: отсутствуют
1964 г.- Главная премия на Международном кинофестивале в Карловых Варах
1964 г.- Премии на Международном кинофестивале в Акапулько
1964 г.-Главная премия и приз за актёрскую работу (А. Папанов) на первом ВКФ в Ленинграде
1964 г.- Лидер проката
1серия:
General
Complete name : E:\Torrent\Zivie_i_mertvie_[Pirat.ca].torrent\1 серия.avi
Format : AVI
Format/Info : Audio Video Interleave
File size : 1.01 GiB
Duration : 1h 33mn
Overall bit rate : 1 543 Kbps
Writing library : VirtualDub build 24390/release
Video
ID : 0
Format : MPEG-4 Visual
Format settings, BVOP : 1
Format settings, QPel : No
Format settings, GMC : No warppoints
Format settings, Matrix : Default (H.263)
Muxing mode : Packed bitstream
Codec ID : DX50
Codec ID/Hint : DivX 5
Duration : 1h 33mn
Bit rate : 1 406 Kbps
Width : 608 pixels
Height : 336 pixels
Display aspect ratio : 16:9
Frame rate : 25.000 fps
Color space : YUV
Chroma subsampling : 4:2:0
Bit depth : 8 bits
Scan type : Progressive
Compression mode : Lossy
Bits/(Pixel*Frame) : 0.275
Stream size : 943 MiB (91%)
Writing library : DivX 5.1.0 (UTC 2003-09-02)
Audio
ID : 1
Format : MPEG Audio
Format version : Version 1
Format profile : Layer 3
Mode : Joint stereo
Mode extension : MS Stereo
Codec ID : 55
Codec ID/Hint : MP3
Duration : 1h 33mn
Bit rate mode : Constant
Bit rate : 128 Kbps
Channel(s) : 2 channels
Sampling rate : 48.0 KHz
Compression mode : Lossy
Delay relative to video : 309ms
Stream size : 85.8 MiB (8%)
Alignment : Split accross interleaves
Interleave, duration : 40 ms (1.00 video frame)
Interleave, preload duration : 500 ms
2серия:
General
Complete name : E:\Torrent\Zivie_i_mertvie_[Pirat.ca].torrent\2 серия.avi
Format : AVI
Format/Info : Audio Video Interleave
File size : 1.02 GiB
Duration : 1h 34mn
Overall bit rate : 1 543 Kbps
Writing library : VirtualDub build 24390/release
Video
ID : 0
Format : MPEG-4 Visual
Format settings, BVOP : 1
Format settings, QPel : No
Format settings, GMC : No warppoints
Format settings, Matrix : Default (H.263)
Muxing mode : Packed bitstream
Codec ID : DX50
Codec ID/Hint : DivX 5
Duration : 1h 34mn
Bit rate : 1 405 Kbps
Width : 608 pixels
Height : 336 pixels
Display aspect ratio : 16:9
Frame rate : 25.000 fps
Color space : YUV
Chroma subsampling : 4:2:0
Bit depth : 8 bits
Scan type : Progressive
Compression mode : Lossy
Bits/(Pixel*Frame) : 0.275
Stream size : 954 MiB (91%)
Writing library : DivX 5.1.0 (UTC 2003-09-02)
Audio
ID : 1
Format : MPEG Audio
Format version : Version 1
Format profile : Layer 3
Mode : Joint stereo
Mode extension : MS Stereo
Codec ID : 55
Codec ID/Hint : MP3
Duration : 1h 34mn
Bit rate mode : Constant
Bit rate : 128 Kbps
Channel(s) : 2 channels
Sampling rate : 48.0 KHz
Compression mode : Lossy
Delay relative to video : 21ms
Stream size : 86.9 MiB (8%)
Alignment : Split accross interleaves
Interleave, duration : 40 ms (1.00 video frame)
Interleave, preload duration : 500 ms
Раздача с 14.00 до 2.30 (время московское)
Download / Скачать

Хотите скачать бесплатно? Зарегистрируйтесь на сайте (ссылка на регистрацию). Pirat.ca - самый быстрый торрент трекер в рунете!

Как скачивать  ·   Что такое торрент  ·   Рейтинг и ограничения

Пост 15-Окт-2014 13:49 (спустя 8 минут)

Топик был перенесен из форума Наше кино (Трюм) в форум Советское кино
LPPI
 

viktor41

Шкипер

Пост 15-Окт-2014 14:07 (спустя 26 минут)

[Q] 

Сильный фильм .Большое спасибо ! aa Всем качать!!!
[Профиль]  [ЛС] 

jumpersky

Легенда

Пост 15-Окт-2014 18:34 (спустя 4 часа)

[Q] 

Автору респект!!! Лови бочку золото!!!
[Профиль]  [ЛС] 

xzxscorpxzx

Флибустьер

Пост 15-Фев-2016 11:36 (спустя 1 год 3 месяца)

[Q] 

хороший фильм!еще раз гляну
[Профиль]  [ЛС] 
Показать сообщения:    
Ответить на тему

Текущее время: Сегодня 02:08

Часовой пояс: GMT + 4



Вы не можете начинать темы
Вы не можете отвечать на сообщения
Вы не можете редактировать свои сообщения
Вы не можете удалять свои сообщения
Вы не можете голосовать в опросах
Вы не можете прикреплять файлы к сообщениям
Вы не можете скачивать файлы

▼ Вниз