ML
     
  Уважаемый Гость!
Вы можете поддержать проект и зарегистрироваться у наших партнеров - онлайн-стратегия MyLands. При регистрации в игре Вы получите код, который сможете активировать после регистрации на pirat.ca и получить 1000 дублонов.

Ваш код:
fe4e93b754a7c2b306fcfc8bc32532ea1cf59d3b
 
     

Неизвестный солдат (3 серии) (Григорий Аронов, Вадим Зобин) [1984 г., военный, киноповесть, DVDRip]

Ответить на тему
 
Автор
Сообщение

Пост 17-Окт-2014 14:54

[Q] 

Мархуз

-Неизвестный солдат (3 серии)-- Производство: СССР, творческое объединение «Экран»
Режиссеры: Григорий Аронов, Вадим Зобин
Жанр: военный, киноповесть
Год выпуска: 1984 г.
Продолжительность: 01:09:00
В ролях: Василий Фунтиков, Николай Гринько, Людмила Новоселова, Роберт Спиричев, Юрий Оськин, Иван Шабалтас, Игорь Класс, Павел Белозеров, Артур Богатов, Эрнст Романов, Николай Гаевский, Галина Левина (Орлова), Анатолий Котенёв, Сергей Вещев, Е. Полуэктова, Наталья Хорохорина, Е. Гурьянова, Капитолина Ильенко, Стефания Станюта, Галина Макарова, Виктор Мамаев, Ирина Гольцова, В. Кузнецов, Ксения Козьмина, Андрей Манке, Нина Гребешкова, Григорий Всеволодов-Описание: Не попав в институт, Сергей Крашенинников приезжает к деду в небольшой городок и начинает работать в дорожной строительной бригаде. В ходе работ строители обнаруживают солдатскую могилу. Сергею поручают выяснить личность погибшего. Он начинает поиск...-Качество видео: DVDRip
Контейнер: AVI
Видео кодек: DivX
Аудио кодек: MP3
Видео: 640x480; 1286 kbps; 25 fps; 0.167 bit/pixel
Аудио: 128 kbps; 2 ch; 48 kHz
Cубтитры: отсутствуют
1серия:
General
Complete name : E:\Torrent\Neizvestniy_soldat_[Pirat.ca].torrent\01 серия.avi
Format : AVI
Format/Info : Audio Video Interleave
File size : 681 MiB
Duration : 1h 6mn
Overall bit rate : 1 423 Kbps
Writing application : VirtualDubModRus 1.5.10.2 (build 2542/release)
Writing library : VirtualDubMod build 2542/release
Video
ID : 0
Format : MPEG-4 Visual
Format settings, BVOP : 1
Format settings, QPel : No
Format settings, GMC : No warppoints
Format settings, Matrix : Default (H.263)
Muxing mode : Packed bitstream
Codec ID : DX50
Codec ID/Hint : DivX 5
Duration : 1h 6mn
Bit rate : 1 286 Kbps
Width : 640 pixels
Height : 480 pixels
Display aspect ratio : 4:3
Frame rate : 25.000 fps
Color space : YUV
Chroma subsampling : 4:2:0
Bit depth : 8 bits
Scan type : Progressive
Compression mode : Lossy
Bits/(Pixel*Frame) : 0.167
Stream size : 615 MiB (90%)
Writing library : DivX 6.8.3-6.8.4 (UTC 2008-06-07)
Audio
ID : 1
Format : MPEG Audio
Format version : Version 1
Format profile : Layer 3
Mode : Joint stereo
Codec ID : 55
Codec ID/Hint : MP3
Duration : 1h 6mn
Bit rate mode : Constant
Bit rate : 128 Kbps
Channel(s) : 2 channels
Sampling rate : 48.0 KHz
Compression mode : Lossy
Stream size : 61.2 MiB (9%)
Alignment : Aligned on interleaves
Interleave, duration : 40 ms (1.00 video frame)
Interleave, preload duration : 504 ms
Writing library : LAME3.97
Encoding settings : -m j -V 4 -q 1 -b 128
2серия:
General
Complete name : E:\Torrent\Neizvestniy_soldat_[Pirat.ca].torrent\02 серия.avi
Format : AVI
Format/Info : Audio Video Interleave
File size : 704 MiB
Duration : 1h 9mn
Overall bit rate : 1 423 Kbps
Writing application : VirtualDubModRus 1.5.10.2 (build 2542/release)
Writing library : VirtualDubMod build 2542/release
Video
ID : 0
Format : MPEG-4 Visual
Format settings, BVOP : 1
Format settings, QPel : No
Format settings, GMC : No warppoints
Format settings, Matrix : Default (H.263)
Muxing mode : Packed bitstream
Codec ID : DX50
Codec ID/Hint : DivX 5
Duration : 1h 9mn
Bit rate : 1 285 Kbps
Width : 640 pixels
Height : 480 pixels
Display aspect ratio : 4:3
Frame rate : 25.000 fps
Color space : YUV
Chroma subsampling : 4:2:0
Bit depth : 8 bits
Scan type : Progressive
Compression mode : Lossy
Bits/(Pixel*Frame) : 0.167
Stream size : 636 MiB (90%)
Writing library : DivX 6.8.3-6.8.4 (UTC 2008-06-07)
Audio
ID : 1
Format : MPEG Audio
Format version : Version 1
Format profile : Layer 3
Mode : Joint stereo
Mode extension : MS Stereo
Codec ID : 55
Codec ID/Hint : MP3
Duration : 1h 9mn
Bit rate mode : Constant
Bit rate : 128 Kbps
Channel(s) : 2 channels
Sampling rate : 48.0 KHz
Compression mode : Lossy
Stream size : 63.3 MiB (9%)
Alignment : Aligned on interleaves
Interleave, duration : 40 ms (1.00 video frame)
Interleave, preload duration : 504 ms
Writing library : LAME3.97
Encoding settings : -m j -V 4 -q 1 -b 128
3серия:
General
Complete name : E:\Torrent\Neizvestniy_soldat_[Pirat.ca].torrent\03 серия.avi
Format : AVI
Format/Info : Audio Video Interleave
File size : 710 MiB
Duration : 1h 9mn
Overall bit rate : 1 423 Kbps
Writing application : VirtualDubModRus 1.5.10.2 (build 2542/release)
Writing library : VirtualDubMod build 2542/release
Video
ID : 0
Format : MPEG-4 Visual
Format settings, BVOP : 1
Format settings, QPel : No
Format settings, GMC : No warppoints
Format settings, Matrix : Default (H.263)
Muxing mode : Packed bitstream
Codec ID : DX50
Codec ID/Hint : DivX 5
Duration : 1h 9mn
Bit rate : 1 285 Kbps
Width : 640 pixels
Height : 480 pixels
Display aspect ratio : 4:3
Frame rate : 25.000 fps
Color space : YUV
Chroma subsampling : 4:2:0
Bit depth : 8 bits
Scan type : Progressive
Compression mode : Lossy
Bits/(Pixel*Frame) : 0.167
Stream size : 642 MiB (90%)
Writing library : DivX 6.8.3-6.8.4 (UTC 2008-06-07)
Audio
ID : 1
Format : MPEG Audio
Format version : Version 1
Format profile : Layer 3
Mode : Joint stereo
Mode extension : MS Stereo
Codec ID : 55
Codec ID/Hint : MP3
Duration : 1h 9mn
Bit rate mode : Constant
Bit rate : 128 Kbps
Channel(s) : 2 channels
Sampling rate : 48.0 KHz
Compression mode : Lossy
Stream size : 63.9 MiB (9%)
Alignment : Aligned on interleaves
Interleave, duration : 40 ms (1.00 video frame)
Interleave, preload duration : 504 ms
Writing library : LAME3.97
Encoding settings : -m j -V 4 -q 2 -b 128
Раздача с 14.00 до 2.30 (время московское)
Download / Скачать

Хотите скачать бесплатно? Зарегистрируйтесь на сайте (ссылка на регистрацию). Pirat.ca - самый быстрый торрент трекер в рунете!

Как скачивать  ·   Что такое торрент  ·   Рейтинг и ограничения

Пост 17-Окт-2014 15:41 (спустя 46 минут)

Топик был перенесен из форума Наше кино (Трюм) в форум Советское кино
kugesan
 

xzxscorpxzx

Флибустьер

Пост 15-Фев-2016 11:11 (спустя 1 год 3 месяца)

[Q] 

хороший фильм!
[Профиль]  [ЛС] 
Показать сообщения:    
Ответить на тему

Текущее время: Сегодня 14:29

Часовой пояс: GMT + 4



Вы не можете начинать темы
Вы не можете отвечать на сообщения
Вы не можете редактировать свои сообщения
Вы не можете удалять свои сообщения
Вы не можете голосовать в опросах
Вы не можете прикреплять файлы к сообщениям
Вы не можете скачивать файлы

▼ Вниз