ML
     
  Уважаемый Гость!
Вы можете поддержать проект и зарегистрироваться у наших партнеров - онлайн-стратегия MyLands. При регистрации в игре Вы получите код, который сможете активировать после регистрации на pirat.ca и получить 1000 дублонов.

Ваш код:
f612af22ea70acf5cbe90707ac5a076d215f8f7f
 
     

Белый взрыв (Станислав Говорухин) [1969 г., военный, DVDRip]

Ответить на тему
 
Автор
Сообщение

Пост 20-Окт-2014 13:44

[Q] 

Мархуз

-Белый взрыв-- Производство: СССР. Одесская киностудия
Режиссер: Станислав Говорухин
Жанр: военный
Год выпуска: 1969 г.
Продолжительность: 01:10:50
В ролях:Сергей Никоненко, Людмила Гурченко, Армен Джигарханян, Владимир Высоцкий , Бухути Закариадзе, Федор Одиноков, Анатолий Игнатьев, Степан Крылов, Николай Федорцов.-Описание: Действие происходит в годы Великой Отечественной войны в горах Кавказа. Немецкие солдаты из горнострелковой дивизии «Эдельвейс» заняли позицию в горах, с которой обстреливали переправлявшихся через хребет беженцев и раненых. Лейтенант Артём Арсенов предлагает смелый план: подняться на вершину и взорвать снеговую шапку, чтобы образовавшаяся лавина обрушилась на немецкие позиции. Сам он безуспешно пытался покорить эту вершину в довоенное время. Для выполнения задания он набирает группу из шести человек, среди которых есть как опытные альпинисты, так и новички. Ценой гибели большей части группы им удаётся выполнить задание. Через разблокированный перевал начинают движение силы Красной армии.-Качество видео: DVDRip
Контейнер: AVI
Видео кодек: DivX
Аудио кодек: AC3
Видео: 704x400; 1800 kbps; 25 fps; 0.256 bit/pixel
Аудио: 192 kbps; 2 ch; 48 kHz
Cубтитры: отсутствуют
General
Complete name : E:\Torrent\Beliy_vzriv_[Pirat.ca].torrent.avi
Format : AVI
Format/Info : Audio Video Interleave
File size : 1 014 MiB
Duration : 1h 10mn
Overall bit rate : 2 002 Kbps
Writing library : VirtualDub build 27021/release
Video
ID : 0
Format : MPEG-4 Visual
Format settings, BVOP : 1
Format settings, QPel : No
Format settings, GMC : No warppoints
Format settings, Matrix : Default (H.263)
Muxing mode : Packed bitstream
Codec ID : DX50
Codec ID/Hint : DivX 5
Duration : 1h 10mn
Bit rate : 1 800 Kbps
Width : 704 pixels
Height : 400 pixels
Display aspect ratio : 16:9
Frame rate : 25.000 fps
Color space : YUV
Chroma subsampling : 4:2:0
Bit depth : 8 bits
Scan type : Progressive
Compression mode : Lossy
Bits/(Pixel*Frame) : 0.256
Stream size : 912 MiB (90%)
Writing library : DivX 5.2.1 Alpha (UTC 2004-09-08)
Audio
ID : 1
Format : AC-3
Format/Info : Audio Coding 3
Mode extension : CM (complete main)
Format settings, Endianness : Big
Codec ID : 2000
Duration : 1h 10mn
Bit rate mode : Constant
Bit rate : 192 Kbps
Channel(s) : 2 channels
Channel positions : Front: L R
Sampling rate : 48.0 KHz
Bit depth : 16 bits
Compression mode : Lossy
Stream size : 97.2 MiB (10%)
Alignment : Aligned on interleaves
Interleave, duration : 40 ms (1.00 video frame)
Interleave, preload duration : 512 ms
Раздача с 14.00 до 2.30 (время московское)
Download / Скачать

Хотите скачать бесплатно? Зарегистрируйтесь на сайте (ссылка на регистрацию). Pirat.ca - самый быстрый торрент трекер в рунете!

Как скачивать  ·   Что такое торрент  ·   Рейтинг и ограничения

Пост 20-Окт-2014 17:47 (спустя 4 часа)

Топик был перенесен из форума Наше кино (Трюм) в форум Советское кино
ara1205
 

sevensv

Легенда

2599

Пост 03-Ноя-2014 10:55 (спустя 13 дней)

[Q] 

Раздающему респект! Спасибо!!!
[Профиль]  [ЛС] 

jofrei53

Корсар

Пост 08-Май-2015 20:59 (спустя 6 месяцев 5 дней)

[Q] 

ОГРОМНОЕ Спасибо!!! С Днём Победы!!! Раздающему респект! Супер!
[Профиль]  [ЛС] 
Показать сообщения:    
Ответить на тему

Текущее время: Сегодня 00:25

Часовой пояс: GMT + 4



Вы не можете начинать темы
Вы не можете отвечать на сообщения
Вы не можете редактировать свои сообщения
Вы не можете удалять свои сообщения
Вы не можете голосовать в опросах
Вы не можете прикреплять файлы к сообщениям
Вы не можете скачивать файлы

▼ Вниз