ML
     
  Уважаемый Гость!
Вы можете поддержать проект и зарегистрироваться у наших партнеров - онлайн-стратегия MyLands. При регистрации в игре Вы получите код, который сможете активировать после регистрации на pirat.ca и получить 1000 дублонов.

Ваш код:
a6d1ef7ff63e237add5a4c8b21d8aa937c5e9b4b
 
     

Достояние республики (2 серии) (Владимир Бычков) [1971 г., детектив, приключения, DVDRip]

Ответить на тему
 
Автор
Сообщение

Пост 25-Окт-2014 15:37

[Q] 

Мархуз

-Достояние республики (2 серии)-- Производство: СССР, Киностудия им. М. Горького
Режиссер: Владимир Бычков
Жанр: детектив, приключения
Год выпуска: 1971 г.
Продолжительность: 02:10:46
В ролях: Олег Табаков, Андрей Миронов, Игорь Кваша, Инга Будкевич, Галина Буклина, Василий Бычков, Виктор Галкин, Светлана Головина, Владимир Грамматиков, Галина Инютина, Виктор Колпаков, Лидия Королёва, Людмила Крылова, Борис Лескин, Анна Лисянская, Пётр Меркурьев, Спартак Мишулин, Сергей Плотников, Юрий Потёмкин, Никита Романов, Николай Сергеев, Ольга Жизнева-Описание: Весна 1918 года. Тараканов, управляющий имением князя Тихвинского, с помощью бывшего придворного учителя фехтования Маркиза и беспризорника Кешки, похищает из покинутого хозяевами поместья коллекцию полотен и скульптур. Надеясь переправить её за границу, преступники кочуют с цирковой труппой, а по их следу идёт неутомимый сотрудник уголовного розыска Макар Овчинников.-Качество видео: DVDRip
Контейнер: AVI
Видео кодек: XviD
Аудио кодек: AC3
Видео: 704x272; 1806 kbps; 25 fps; 0.377 bit/pixel
Аудио: 448 kbps; 6 ch; 48 kHz
Cубтитры: отсутствуют
1серия:
General
Complete name : E:\Torrent\Dostojanie_respubliki_[Pirat.ca].torrent\1 серия.avi
Format : AVI
Format/Info : Audio Video Interleave
File size : 1 024 MiB
Duration : 1h 3mn
Overall bit rate : 2 264 Kbps
Movie name : Достояние Республики
Writing application : VirtualDubMod 1.5.10.2 (build 2540/release)
Writing library : VirtualDubMod build 2540/release
Copyright : RG_rutracker.org
Video
ID : 0
Format : MPEG-4 Visual
Format profile : Advanced [email protected]
Format settings, BVOP : 1
Format settings, QPel : No
Format settings, GMC : No warppoints
Format settings, Matrix : Custom
Codec ID : XVID
Codec ID/Hint : XviD
Duration : 1h 3mn
Bit rate : 1 806 Kbps
Width : 704 pixels
Height : 272 pixels
Display aspect ratio : 2.588
Frame rate : 25.000 fps
Color space : YUV
Chroma subsampling : 4:2:0
Bit depth : 8 bits
Scan type : Progressive
Compression mode : Lossy
Bits/(Pixel*Frame) : 0.377
Stream size : 817 MiB (80%)
Writing library : XviD 1.2.1 (UTC 2008-12-04)
Audio
ID : 1
Format : AC-3
Format/Info : Audio Coding 3
Mode extension : CM (complete main)
Format settings, Endianness : Big
Codec ID : 2000
Duration : 1h 3mn
Bit rate mode : Constant
Bit rate : 448 Kbps
Channel(s) : 6 channels
Channel positions : Front: L C R, Side: L R, LFE
Sampling rate : 48.0 KHz
Bit depth : 16 bits
Compression mode : Lossy
Stream size : 203 MiB (20%)
Alignment : Split accross interleaves
Interleave, duration : 40 ms (1.00 video frame)
Interleave, preload duration : 500 ms
2серия:
General
Complete name : E:\Torrent\Dostojanie_respubliki_[Pirat.ca].torrent\2 серия.avi
Format : AVI
Format/Info : Audio Video Interleave
File size : 1.17 GiB
Duration : 1h 7mn
Overall bit rate : 2 484 Kbps
Movie name : Достояние Республики
Writing application : VirtualDubMod 1.5.10.2 (build 2540/release)
Writing library : VirtualDubMod build 2540/release
Copyright : RG_rutracker.org
Video
ID : 0
Format : MPEG-4 Visual
Format profile : Advanced [email protected]
Format settings, BVOP : 1
Format settings, QPel : No
Format settings, GMC : No warppoints
Format settings, Matrix : Custom
Codec ID : XVID
Codec ID/Hint : XviD
Duration : 1h 7mn
Bit rate : 2 026 Kbps
Width : 704 pixels
Height : 272 pixels
Display aspect ratio : 2.588
Frame rate : 25.000 fps
Color space : YUV
Chroma subsampling : 4:2:0
Bit depth : 8 bits
Scan type : Progressive
Compression mode : Lossy
Bits/(Pixel*Frame) : 0.423
Stream size : 980 MiB (82%)
Writing library : XviD 1.2.1 (UTC 2008-12-04)
Audio
ID : 1
Format : AC-3
Format/Info : Audio Coding 3
Mode extension : CM (complete main)
Format settings, Endianness : Big
Codec ID : 2000
Duration : 1h 7mn
Bit rate mode : Constant
Bit rate : 448 Kbps
Channel(s) : 6 channels
Channel positions : Front: L C R, Side: L R, LFE
Sampling rate : 48.0 KHz
Bit depth : 16 bits
Compression mode : Lossy
Delay relative to video : 16ms
Stream size : 217 MiB (18%)
Alignment : Split accross interleaves
Interleave, duration : 40 ms (1.00 video frame)
Interleave, preload duration : 500 ms
Раздача с 14.00 до 2.30 (время московское)
Download / Скачать

Хотите скачать бесплатно? Зарегистрируйтесь на сайте (ссылка на регистрацию). Pirat.ca - самый быстрый торрент трекер в рунете!

Как скачивать  ·   Что такое торрент  ·   Рейтинг и ограничения

Пост 25-Окт-2014 22:28 (спустя 6 часов)

Топик был перенесен из форума Наше кино (Трюм) в форум Советское кино
erchine
 

xzxscorpxzx

Флибустьер

Пост 15-Фев-2016 11:41 (спустя 1 год 3 месяца)

[Q] 

шикарно)всем качать)
[Профиль]  [ЛС] 
Показать сообщения:    
Ответить на тему

Текущее время: Сегодня 13:33

Часовой пояс: GMT + 4



Вы не можете начинать темы
Вы не можете отвечать на сообщения
Вы не можете редактировать свои сообщения
Вы не можете удалять свои сообщения
Вы не можете голосовать в опросах
Вы не можете прикреплять файлы к сообщениям
Вы не можете скачивать файлы

▼ Вниз