ML
     
  Уважаемый Гость!
Вы можете поддержать проект и зарегистрироваться у наших партнеров - онлайн-стратегия MyLands. При регистрации в игре Вы получите код, который сможете активировать после регистрации на pirat.ca и получить 1000 дублонов.

Ваш код:
cc3be08b7507661c03e0a2f582d0da3a659ea55a
 
     

Палач (Виктор Сергеев) [1990 г., Криминал,Драма, DVDRip]

Ответить на тему
 
Автор
Сообщение

Пост 07-Ноя-2014 08:41

[Q] 

Элез

Флибустьер

-Палач-- Производство: СССР
Режиссер: Виктор Сергеев
Жанр: Криминал,Драма
Год выпуска: 1990 г.
Продолжительность: 01:12:27/01:24:12
В ролях: Ирина Метлицкая, Андрей Соколов, Сергей Газаров, Борис Галкин, Станислав Садальский, Лариса Гузеева, Аристарх Ливанов, Елена Аржаник, Альгис Матулионис, Лариса Цапусто, Александр Шурыгин, Игорь Харламов, Герман Ведентьев, Евгений Александров, Вадим Медведев, Николай Крюков, Тамара Лебедева, Майя Блинова, Анна Твеленева, Вадим Гущин, Никита Михайловский, Вячеслав Васильев, Игорь Агеев, Александр Загорский, Олег Петров, Аня Березницкая-Описание: Преуспевающая журналистка-фоторепортер Ольга, молодая красивая женщина, хорошо знающая иностранные языки, едет на дачу к четырем приятелям, любящим поиграть в бридж и посмотреть заграничное кино с синхронным переводом. Один из приятелей, врач-нарколог, подсыпает Ольге в пепси-колу нейролептик, и все они, за исключением одного, насилуют ее по очереди. Вернувшись домой, Ольга решает мстить. Она отказывается писать заявление, когда ее вызывают в милицию, продает старинные, очень дорогие серьги с бриллиантами и отдает деньги некоему криминальному авторитету. Задание - наказать обидчиков Ольги по полной программе, но не убивать. Какое именно наказание придумать для каждого из насильников, палач решает сам...-Сэмпл КиноПоиск
Качество видео: DVDRip
Контейнер: AVI
Видео кодек: XviD
Аудио кодек: AC3
Видео: MPEG-4 Visual at 2020 Кбит/сек : 720 x 536 at 25.000 fps 0.209 Бит/Пиксели
Аудио: AC-3 at 192 Кбит/сек : 2 канала, 48,0 КГц
Перевод:Не требуется
Cубтитры: отсутствуют
Общее
Полное имя : D:\уторент\раздачи\Палач\02.avi
Формат : AVI
Формат/Информация : Audio Video Interleave
Размер файла : 1,31 Гбайт
Продолжительность : 1 ч. 24 м.
Общий поток : 2222 Кбит/сек
Программа кодирования : VirtualDubModRus 1.5.10.2 (build 2542/release)
Библиотека кодирования : VirtualDubMod build 2542/release
Видео
Идентификатор : 0
Формат : MPEG-4 Visual
Профиль формата : Advanced [email protected]
Параметр BVOP формата : 2
Параметр QPel формата : Нет
Параметр GMC формата : Без точки перехода
Параметр матрицы формата : Default (H.263)
Режим смешивания : Сжатый битовый поток
Идентификатор кодека : XVID
Идентификатор кодека/Подсказка : XviD
Продолжительность : 1 ч. 24 м.
Битрейт : 2020 Кбит/сек
Ширина : 720 пикселей
Высота : 536 пикселей
Соотношение сторон : 4:3
Частота кадров : 25,000 кадров/сек
Цветовое пространство : YUV
Субдискретизация насыщенности : 4:2:0
Битовая глубина : 8 бит
Тип развёртки : Чересстрочная
Порядок развёртки : Нижнее поле первое
Метод сжатия : С потерями
Бит/(Пиксели*Кадры) : 0.209
Размер потока : 1,19 Гбайт (91%)
Библиотека кодирования : XviD 1.2.1 (UTC 2008-12-04)
Аудио
Идентификатор : 1
Формат : AC-3
Формат/Информация : Audio Coding 3
Расширение режима : CM (complete main)
Параметр Endianness формата : Big
Идентификатор кодека : 2000
Продолжительность : 1 ч. 24 м.
Вид битрейта : Постоянный
Битрейт : 192 Кбит/сек
Каналы : 2 канала
Расположение каналов : Front: L R
Частота : 48,0 КГц
Битовая глубина : 16 бит
Метод сжатия : С потерями
Задержка видео : 16 мс.
Размер потока : 116 Мбайт (9%)
Выравнивание : Разделение по промежуткам
Продолжительность промежутка : 40 мс. (1,00 видеокадр)
Время предзагрузки промежутка : 500 мс.
Download / Скачать

Хотите скачать бесплатно? Зарегистрируйтесь на сайте (ссылка на регистрацию). Pirat.ca - самый быстрый торрент трекер в рунете!

Как скачивать  ·   Что такое торрент  ·   Рейтинг и ограничения

Пост 07-Ноя-2014 16:10 (спустя 7 часов)

Топик был перенесен из форума Наше кино (Трюм) в форум Советское кино
LPPI
 

СерКат

Корсар

Пост 09-Май-2015 01:09 (спустя 6 месяцев 1 день)

[Q] 

смотреть можно
[Профиль]  [ЛС] 
Показать сообщения:    
Ответить на тему

Текущее время: Сегодня 05:08

Часовой пояс: GMT + 4



Вы не можете начинать темы
Вы не можете отвечать на сообщения
Вы не можете редактировать свои сообщения
Вы не можете удалять свои сообщения
Вы не можете голосовать в опросах
Вы не можете прикреплять файлы к сообщениям
Вы не можете скачивать файлы

▼ Вниз