ML
     
  Уважаемый Гость!
Вы можете поддержать проект и зарегистрироваться у наших партнеров - онлайн-стратегия MyLands. При регистрации в игре Вы получите код, который сможете активировать после регистрации на pirat.ca и получить 1000 дублонов.

Ваш код:
4fbd9898b6f10799a3e8edf60f31febd2bc15453
 
     

Операция "Вундерланд" (Отар Коберидзе) [1989 г., военный, SATRip]

Ответить на тему
 
Автор
Сообщение

Пост 16-Ноя-2014 17:57

[Q] 

Мархуз

-Операция "Вундерланд"-- Производство: СССР, Грузия-фильм
Режиссер: Отар Коберидзе
Жанр: военный
Год выпуска: 1989 г.
Продолжительность: 01:16:11
В ролях: Георгий Бурджанадзе, Альберт Филозов, Виктор Павлов, Рудольф Челищев, Андрей Афонко, Татьяна Говорова, Валерий Кравченко, Павел Ремезов, Бадри Кобахидзе-Описание: 1942 год. Крайний Север. Сквозь льды, пробивая дорогу, идет ледокол - на нем практически нет оружия. Но именно ему предстоит стоять насмерть, преграждая путь немецкому крейсеру. Небольшой отряд моряков во главе с капитаном Анатолием Качарава остановил на три с лишним часа врага. Так будет провалена тщательно подготовленная фашистским командованием операция «Вундерланд» («Страна чудес»), целью которой было помешать каравану советских судов доставить в Архангельск медикаменты, продукты, обмундирование.-Качество видео: SATRip
Контейнер: AVI
Видео кодек: XviD
Аудио кодек: MP3
Видео: 688x512; 909 kbps; 25fps; 0.103 bit/pix
Аудио: 96 kbps; 2 ch; 44.1kHz,
Cубтитры: отсутствуют
General
Complete name : E:\Torrent\Operacia_Vunderland_[Pirat.ca].torrent.avi
Format : AVI
Format/Info : Audio Video Interleave
File size : 554 MiB
Duration : 1h 16mn
Overall bit rate : 1 017 Kbps
Writing application : Lavf50.6.0
Writing library : VirtualDub build 35390/release
Video
ID : 0
Format : MPEG-4 Visual
Format profile : Advanced [email protected]
Format settings, BVOP : 2
Format settings, QPel : No
Format settings, GMC : No warppoints
Format settings, Matrix : Default (H.263)
Muxing mode : Packed bitstream
Codec ID : XVID
Codec ID/Hint : XviD
Duration : 1h 16mn
Bit rate : 909 Kbps
Width : 688 pixels
Height : 512 pixels
Display aspect ratio : 4:3
Frame rate : 25.000 fps
Color space : YUV
Chroma subsampling : 4:2:0
Bit depth : 8 bits
Scan type : Progressive
Compression mode : Lossy
Bits/(Pixel*Frame) : 0.103
Stream size : 495 MiB (89%)
Writing library : XviD 64
Audio
ID : 1
Format : MPEG Audio
Format version : Version 1
Format profile : Layer 3
Mode : Joint stereo
Mode extension : MS Stereo
Codec ID : 55
Codec ID/Hint : MP3
Duration : 1h 16mn
Bit rate mode : Constant
Bit rate : 96.0 Kbps
Channel(s) : 2 channels
Sampling rate : 44.1 KHz
Compression mode : Lossy
Stream size : 52.3 MiB (9%)
Alignment : Aligned on interleaves
Interleave, duration : 26 ms (0.65 video frame)
Interleave, preload duration : 522 ms
Раздача с 14.00 до 2.30 (время московское)
Download / Скачать

Хотите скачать бесплатно? Зарегистрируйтесь на сайте (ссылка на регистрацию). Pirat.ca - самый быстрый торрент трекер в рунете!

Как скачивать  ·   Что такое торрент  ·   Рейтинг и ограничения

Пост 16-Ноя-2014 18:08 (спустя 10 минут)

Топик был перенесен из форума Наше кино (Трюм) в форум Советское кино
LPPI
 
Показать сообщения:    
Ответить на тему

Текущее время: Сегодня 20:02

Часовой пояс: GMT + 4



Вы не можете начинать темы
Вы не можете отвечать на сообщения
Вы не можете редактировать свои сообщения
Вы не можете удалять свои сообщения
Вы не можете голосовать в опросах
Вы не можете прикреплять файлы к сообщениям
Вы не можете скачивать файлы

▼ Вниз