ML
     
  Уважаемый Гость!
Вы можете поддержать проект и зарегистрироваться у наших партнеров - онлайн-стратегия MyLands. При регистрации в игре Вы получите код, который сможете активировать после регистрации на pirat.ca и получить 1000 дублонов.

Ваш код:
f612af22ea70acf5cbe90707ac5a076d215f8f7f
 
     

Чертов пьяница (Юрий Манусов) [1991 г., комедия, DVDRip]

Ответить на тему
 
Автор
Сообщение

Пост 14-Дек-2014 21:16

[Q] 

a1b1c1

Гроза морей

-Чертов пьяница-- Производство: СССР
Режиссер: Юрий Манусов
Жанр: комедия
Год выпуска: 1991 г.
Продолжительность: 01:10:30
В ролях: Спартак Мишулин, Петр Щербаков, Наталья Харахорина, Василий Бассель, Светлана Бельская, Александр Филатов, Борис Гитин, Владимир Гуляев, Альберт Каспарянц, Евгений Котов, Виктор Павловский, Юрий Лопарев, Виктор Рухманов, Юрий Саранцев, Владимир Ширяев, Владимир Смирнов, Ольга Суркова, Игорь Тильтиков, Валерий Войтюк, Вадим Захарченко, Сергей Зинченко.-Описание: Как тяжело с бодуна идти на работу? Слесарю Дадонушкину это хорошо известно. И вот он "доползает" до своего станка и, роняя ключи, вдруг видит в углублении станины бутылку водки. Откуда она взялась? Приятель вроде бы ни при чем, заводской борец за трезвость тем более. Но откуда-то она появилась. Больше того, как только одна выпивается, тут же на ее месте оказывается другая. Весь завод в недоумении во главе с директором. Вот такое забавное приключение случилось не без вмешательства темных сил, ведь Дадонушкина жена назвала "чертов пьяница".-КиноПоиск
Качество видео: DVDRip
Контейнер: AVI
Видео кодек: XviD
Аудио кодек: AC3
Видео: 704x536 (1.31:1), 25 fps, XviD build 73 ~2381 kbps avg, 0.25 bit/pixel
Аудио: 48 kHz, AC3 Dolby Digital, 3/2 (L,C,R,l,r) + LFE ch, ~384 kbps
Cубтитры: отсутствуют
Общее
Полное имя : Чертов пьяница.1991.DVDRip.avi
Формат : AVI
Формат/Информация : Audio Video Interleave
Размер файла : 1,37 Гбайт
Продолжительность : 1 ч. 10 м.
Общий поток : 2775 Кбит/сек
Программа кодирования : VirtualDubMod 1.5.10.3 | www.virtualdub-fr.org || (build 2550/release)
Библиотека кодирования : VirtualDubMod build 2550/release
Видео
Идентификатор : 0
Формат : MPEG-4 Visual
Профиль формата : Advanced [email protected]
Параметр BVOP формата : 1
Параметр QPel формата : Нет
Параметр GMC формата : Без точки перехода
Параметр матрицы формата : Выборочная
Идентификатор кодека : XVID
Идентификатор кодека/Подсказка : XviD
Продолжительность : 1 ч. 10 м.
Битрейт : 2381 Кбит/сек
Ширина : 704 пикселя
Высота : 536 пикселей
Соотношение сторон : 4:3
Частота кадров : 25,000 кадров/сек
Цветовое пространство : YUV
Субдискретизация насыщенности : 4:2:0
Битовая глубина : 8 бит
Тип развёртки : Прогрессивная
Метод сжатия : С потерями
Бит/(Пиксели*Кадры) : 0.252
Размер потока : 1,17 Гбайт (86%)
Библиотека кодирования : XviD 73
Аудио
Идентификатор : 1
Формат : AC-3
Формат/Информация : Audio Coding 3
Расширение режима : CM (complete main)
Параметр Endianness формата : Big
Идентификатор кодека : 2000
Продолжительность : 1 ч. 10 м.
Вид битрейта : Постоянный
Битрейт : 384 Кбит/сек
Каналы : 6 каналов
Расположение каналов : Front: L C R, Side: L R, LFE
Частота : 48,0 КГц
Битовая глубина : 16 бит
Метод сжатия : С потерями
Размер потока : 194 Мбайт (14%)
Выравнивание : Разделение по промежуткам
Продолжительность промежутка : 40 мс. (1,00 видеокадр)
Время предзагрузки промежутка : 500 мс.
Download / Скачать

Хотите скачать бесплатно? Зарегистрируйтесь на сайте (ссылка на регистрацию). Pirat.ca - самый быстрый торрент трекер в рунете!

Как скачивать  ·   Что такое торрент  ·   Рейтинг и ограничения

Пост 15-Дек-2014 11:28 (спустя 14 часов)

Топик был перенесен из форума Наше кино (Трюм) в форум Советское кино
kugesan
 

naryshev

Флибустьер

8218

Пост 16-Дек-2014 22:15 (спустя 2 дня)

[Q] 

Веселый, интересный фильм, рекомендую

_________________
[Профиль]  [ЛС] 

DellFlyer

Флибустьер

165

Пост 17-Дек-2014 17:55 (спустя 19 часов)

[Q] 

Юморной фильмец))))) Правда вторая половина фильма это фарс, но всё равно смотрибельно.
Спасибо за релиз!
[Профиль]  [ЛС] 

R_O_Z_A

Морской Волк

Пост 26-Фев-2015 22:31 (спустя 2 месяца 9 дней)

[Q] 

интересный фильм Спасибо!!!
[Профиль]  [ЛС] 

Семен

Морской Волк

Пост 25-Мар-2015 20:50 (спустя 26 дней)

[Q] 

Хороший актерский состав. Надо глянуть Спасибо!!!
[Профиль]  [ЛС] 
Показать сообщения:    
Ответить на тему

Текущее время: Сегодня 00:27

Часовой пояс: GMT + 4



Вы не можете начинать темы
Вы не можете отвечать на сообщения
Вы не можете редактировать свои сообщения
Вы не можете удалять свои сообщения
Вы не можете голосовать в опросах
Вы не можете прикреплять файлы к сообщениям
Вы не можете скачивать файлы

▼ Вниз