ML
     
  Уважаемый Гость!
Вы можете поддержать проект и зарегистрироваться у наших партнеров - онлайн-стратегия MyLands. При регистрации в игре Вы получите код, который сможете активировать после регистрации на pirat.ca и получить 1000 дублонов.

Ваш код:
fe4e93b754a7c2b306fcfc8bc32532ea1cf59d3b
 
     

Без видимых причин (Евгений Татарский) [1981 г., детектив, DVB]

Ответить на тему
 
Автор
Сообщение

Пост 12-Янв-2015 14:35

[Q] 

Мархуз

-Без видимых причин-- Производство: СССР. Ленфильм
Режиссер: Евгений Татарский
Жанр: детектив
Год выпуска: 1981 г.
Продолжительность: 01:16:45
В ролях: Э. Романов, И. Алфёрова, Л. Прыгунов, Г. Дрозд, М. Кононов, Е. Киндинов, И. Дмитриев, Н. Лавров, Н. Струков, С. Крылов, В. Шевельков, Э. Шварцберг, Е. Артемьев, Т. Жаманкулов, Г. Штиль, В. Смоляков-Описание: 1921 год. В провинциальном сибирском городке произошли три, казалось бы, несвязанных друг с другом страшных события. Но чекист Камчатов убежден в существовании связей между убийствами.-Качество видео: DVB
Контейнер: AVI
Видео кодек: XviD
Аудио кодек: MP3
Видео: 688x576; 1043 kbps; 25 fps; 0.105 bit/pixel
Аудио: 1536 kbps; 2 ch; 48 kHz
Cубтитры: отсутствуют
General
Complete name : D:\Torrent\Bez_vidimih_prichin_[Pirat.ca].torrent.avi
Format : AVI
Format/Info : Audio Video Interleave
File size : 1.39 GiB
Duration : 1h 16mn
Overall bit rate : 2 588 Kbps
Writing library : VirtualDub build 35390/release
Video
ID : 0
Format : MPEG-4 Visual
Format profile : Advanced [email protected]
Format settings, BVOP : 2
Format settings, QPel : No
Format settings, GMC : No warppoints
Format settings, Matrix : Default (H.263)
Muxing mode : Packed bitstream
Codec ID : XVID
Codec ID/Hint : XviD
Duration : 1h 16mn
Bit rate : 1 043 Kbps
Width : 688 pixels
Height : 576 pixels
Display aspect ratio : 1.194
Frame rate : 25.000 fps
Color space : YUV
Chroma subsampling : 4:2:0
Bit depth : 8 bits
Scan type : Progressive
Compression mode : Lossy
Bits/(Pixel*Frame) : 0.105
Stream size : 572 MiB (40%)
Writing library : XviD 73
Audio
ID : 1
Format : PCM
Format settings, Endianness : Little
Format settings, Sign : Signed
Codec ID : 1
Duration : 1h 16mn
Bit rate mode : Constant
Bit rate : 1 536 Kbps
Channel(s) : 2 channels
Sampling rate : 48.0 KHz
Bit depth : 16 bits
Stream size : 843 MiB (59%)
Alignment : Aligned on interleaves
Interleave, duration : 40 ms (1.00 video frame)
Interleave, preload duratio : 500 ms
Раздача с 14.00 до 2.30 (время московское)
Download / Скачать

Хотите скачать бесплатно? Зарегистрируйтесь на сайте (ссылка на регистрацию). Pirat.ca - самый быстрый торрент трекер в рунете!

Как скачивать  ·   Что такое торрент  ·   Рейтинг и ограничения

Пост 12-Янв-2015 18:31 (спустя 3 часа)

Топик был перенесен из форума Наше кино (Трюм) в форум Советское кино
kugesan
 

ZiminY

Гроза морей

3242

Пост 13-Янв-2015 13:10 (спустя 22 часа)

[Q] 

Понравился список актеров. Посмотрю. Спасибо!!! Лови бочку

_________________
[Профиль]  [ЛС] 

xzxscorpxzx

Флибустьер

Пост 14-Фев-2016 00:27 (спустя 1 год 1 месяц)

[Q] 

тоже пожалуй гляну
[Профиль]  [ЛС] 

tubuc

Корсар

103

Пост 21-Авг-2016 18:05 (спустя 6 месяцев 7 дней)

[Q] 

Интересный детектив, посмотреть стоит Спасибо!!!
[Профиль]  [ЛС] 
Показать сообщения:    
Ответить на тему

Текущее время: Сегодня 14:30

Часовой пояс: GMT + 4



Вы не можете начинать темы
Вы не можете отвечать на сообщения
Вы не можете редактировать свои сообщения
Вы не можете удалять свои сообщения
Вы не можете голосовать в опросах
Вы не можете прикреплять файлы к сообщениям
Вы не можете скачивать файлы

▼ Вниз