ML
     
  Уважаемый Гость!
Вы можете поддержать проект и зарегистрироваться у наших партнеров - онлайн-стратегия MyLands. При регистрации в игре Вы получите код, который сможете активировать после регистрации на pirat.ca и получить 1000 дублонов.

Ваш код:
b70663c760e7cd2521b8e123786cdd788200e3bd
 
     

Хлеб. Золото. Наган (Самвел Гаспаров) [1980 г., военный, DVDRip]

Ответить на тему
 
Автор
Сообщение

Пост 17-Янв-2015 15:56

[Q] 

Мархуз

-Хлеб. Золото. Наган-- Производство: СССР. Киностудия им. Горького
Режиссер: Самвел Гаспаров
Жанр: военный
Год выпуска: 1980 г.
Продолжительность: 01:03:23
В ролях: В. Борисов, О. Гаспарова, Ю. Григорьев, О. Корчиков, Э. Бурдули, И. Класс, Э. Марцевич, С. Гаспаров, Е. Соляков-Описание: Гражданская война. Воспитательница детского дома везет хлеб голодающим детям. Ее случайные попутчики - чекист Горбач, матрос Саша и начальник станции Зайцев, которому в руки попали три слитка золота. А вокруг - красные, белые, бандиты...-Качество видео: DVDRip
Контейнер: AVI
Видео кодек: DivX
Аудио кодек: AC3
Видео: 688x304; 2178 kbps; 25 fps; 0.417 bit/pixel
Аудио: 448 kbps; 6 ch; 48 kHz
Cубтитры: отсутствуют
General
Complete name : D:\Torrent\Hleb.Zoloto.Nagan._[Pirat.ca].torrent.avi
Format : AVI
Format/Info : Audio Video Interleave
Format profile : OpenDML
File size : 1.23 GiB
Duration : 1h 3mn
Overall bit rate : 2 770 Kbps
Video
ID : 0
Format : MPEG-4 Visual
Format settings, BVOP : 3
Format settings, QPel : No
Format settings, GMC : No warppoints
Format settings, Matrix : Default (H.263)
Muxing mode : Packed bitstream
Codec ID : DX50
Codec ID/Hint : DivX 5
Duration : 1h 3mn
Bit rate : 2 178 Kbps
Width : 688 pixels
Height : 304 pixels
Display aspect ratio : 2.25:1
Frame rate : 25.000 fps
Color space : YUV
Chroma subsampling : 4:2:0
Bit depth : 8 bits
Scan type : Progressive
Compression mode : Lossy
Bits/(Pixel*Frame) : 0.417
Stream size : 988 MiB (79%)
Writing library : DivX 6.8.2 (UTC 2008-05-17)
Audio
ID : 1
Format : AC-3
Format/Info : Audio Coding 3
Mode extension : CM (complete main)
Format settings, Endianness : Big
Codec ID : 2000
Duration : 1h 3mn
Bit rate mode : Constant
Bit rate : 448 Kbps
Channel(s) : 6 channels
Channel positions : Front: L C R, Side: L R, LFE
Sampling rate : 48.0 KHz
Bit depth : 16 bits
Compression mode : Lossy
Stream size : 203 MiB (16%)
Alignment : Aligned on interleaves
Interleave, duration : 32 ms (0.80 video frame)
Раздача с 14.00 до 2.30 (время московское)
Download / Скачать

Хотите скачать бесплатно? Зарегистрируйтесь на сайте (ссылка на регистрацию). Pirat.ca - самый быстрый торрент трекер в рунете!

Как скачивать  ·   Что такое торрент  ·   Рейтинг и ограничения

Пост 17-Янв-2015 17:50 (спустя 1 час 54 минуты)

Топик был перенесен из форума Наше кино (Трюм) в форум Советское кино
aleksey99
 

xzxscorpxzx

Флибустьер

Пост 14-Фев-2016 00:37 (спустя 1 год)

[Q] 

хороший фильм
[Профиль]  [ЛС] 

tubuc

Корсар

103

Пост 21-Авг-2016 18:03 (спустя 6 месяцев 7 дней)

[Q] 

Советский вестерн, однозначно стоит посмотреть Автору респект!!!
[Профиль]  [ЛС] 
Показать сообщения:    
Ответить на тему

Текущее время: Сегодня 00:17

Часовой пояс: GMT + 4



Вы не можете начинать темы
Вы не можете отвечать на сообщения
Вы не можете редактировать свои сообщения
Вы не можете удалять свои сообщения
Вы не можете голосовать в опросах
Вы не можете прикреплять файлы к сообщениям
Вы не можете скачивать файлы

▼ Вниз