ML
     
  Уважаемый Гость!
Вы можете поддержать проект и зарегистрироваться у наших партнеров - онлайн-стратегия MyLands. При регистрации в игре Вы получите код, который сможете активировать после регистрации на pirat.ca и получить 1000 дублонов.

Ваш код:
5f4e94775bc0501caff7b254e79328d304c817d9
 
     

Море в огне (Леон Сааков) [1970 г., военный, TVRip]

Ответить на тему
 
Автор
Сообщение

Пост 03-Фев-2015 15:29

[Q] 

nbdjod

Корсар

-Море в огне-- Производство: СССР, «Мосфильм»
Режиссер: Леон Сааков
Жанр: военный
Год выпуска: 1970 г.
Продолжительность: 01:22:34 + 00:53:57
Мировая премьера: 22 февраля 1972
В ролях: Григорий Антоненко, Николай Гринько, Ростислав Янковский, Всеволод Платов, Владимир Кашпур, Константин Тыртов, Дальвин Щербаков, Сергей Ляхницкий, Юрий Соломин, Ольга Остроумова, Николай Ерёменко (ст.), Всеволод Сафонов, Николай Гудзь, Владлен Паулус, Николай Алексеев (II), Радий Афанасьев, Гиви Берикашвили, Борис Борисов, Лариса Виккел, Юрий Горобец, Анатолий Грачёв, Геннадий Донягин, Гарри Дунц, Николай Иванов, Эдуард Изотов, Эрвин Кнаусмюллер, Василий Корзун, Ирина Короткова, Геннадий Крашенинников, Клара Лучко, Владимир Маренков, Ольга Маркина, Владимир Петченко, Гурам Пирцхалава, Владимир Пицек, Николай Рушковский-Описание: Фильм воссоздает героическую эпопею обороны Севастополя в 1941—1942 годах. Осенью 1941 года немецкая армия под командованием генерала Манштейна прорвала нашу оборону под Перекопом и хлынула в Крым, тесня наши войска на Керченский полуостров. Севастополь оставался почти без прикрытия. 17 декабря немцы начали штурм города. Они стремились превратить Севастополь в груду камней и пепла. Тридцать дней продолжался третий, самый яростный штурм Севастополя, Разрушено было все, но люди продолжали сражаться с беспримерным мужеством. Однако Советское командование было вынуждено принять решение о сдаче города... Через два года Севастополь был освобожден от фашистских захватчиков. Вышедший 22 февраля 1972 года на экраны страны, широкоформатный фильм «Море в огне» первоначально назывался «Обороны Севастополя» и рисовал одну из самых героических страниц Великой Отечественной войны - подвиг защитников крымской твердыни, 250 дней отстаивавших свой город, который фашисты непрерывно атаковали с моря, с суши, с воздуха.-
Качество видео: TVRip
Контейнер: AVI
Видео кодек: XviD
Аудио кодек: MP3
Видео: 1099 Кбит/сек, 720х320, 2,25:1, 25,000 кадров/сек, 0,191 Бит/(Пиксели*Кадры)
Аудио: 128 Кбит/сек, 2 канала, 48,0 КГц
Cубтитры: отсутствуют
Код:
Общее
Полное имя                               : D:\movies\pirat.ca\More.v.ogne.1970.2.serii.Fenixclub\More.v.ogne.1970.01.ser.iz.2.Fenixclub.avi
Формат                                   : AVI
Формат/Информация                        : Audio Video Interleave
Размер файла                             : 730 Мбайт
Продолжительность                        : 1 ч. 22 м.
Общий поток                              : 1236 Кбит/сек
Программа кодирования                    : VirtualDubMod 1.5.10.3 | www.virtualdub-fr.org || (build 2550/release)
Библиотека кодирования                   : VirtualDub build 35560/release
Видео
Идентификатор                            : 0
Формат                                   : MPEG-4 Visual
Профиль формата                          : Advanced [email protected]
Параметр BVOP формата                    : 2
Параметр QPel формата                    : Нет
Параметр GMC формата                     : Без точки перехода
Параметр матрицы формата                 : Default (H.263)
Идентификатор кодека                     : XVID
Идентификатор кодека/Подсказка           : XviD
Продолжительность                        : 1 ч. 22 м.
Битрейт                                  : 1099 Кбит/сек
Ширина                                   : 720 пикселей
Высота                                   : 320 пикселей
Соотношение сторон                       : 2,25:1
Частота кадров                           : 25,000 кадров/сек
Цветовое пространство                    : YUV
Субдискретизация насыщенности            : 4:2:0
Битовая глубина                          : 8 бит
Тип развёртки                            : Прогрессивная
Метод сжатия                             : С потерями
Бит/(Пиксели*Кадры)                      : 0.191
Размер потока                            : 649 Мбайт (89%)
Библиотека кодирования                   : XviD 73
Аудио
Идентификатор                            : 1
Формат                                   : MPEG Audio
Версия формата                           : Version 1
Профиль формата                          : Layer 3
Режим                                    : Joint stereo
Идентификатор кодека                     : 55
Идентификатор кодека/Подсказка           : MP3
Продолжительность                        : 1 ч. 22 м.
Вид битрейта                             : Постоянный
Битрейт                                  : 128 Кбит/сек
Каналы                                   : 2 канала
Частота                                  : 48,0 КГц
Метод сжатия                             : С потерями
Размер потока                            : 75,6 Мбайт (10%)
Выравнивание                             : Разделение по промежуткам
Продолжительность промежутка             : 40  мс. (1,00 видеокадр)
Время предзагрузки промежутка            : 500  мс.
Общее
Полное имя                               : D:\movies\pirat.ca\More.v.ogne.1970.2.serii.Fenixclub\More.v.ogne.1970.02.ser.iz.2.Fenixclub.avi
Формат                                   : AVI
Формат/Информация                        : Audio Video Interleave
Размер файла                             : 749 Мбайт
Продолжительность                        : 53 м.
Режим общего битрейта                    : Переменный
Общий поток                              : 1941 Кбит/сек
Программа кодирования                    : VirtualDubMod 1.5.10.3 | www.virtualdub-fr.org || (build 2550/release)
Библиотека кодирования                   : VirtualDubMod build 2550/release
Видео
Идентификатор                            : 0
Формат                                   : MPEG-4 Visual
Профиль формата                          : Advanced [email protected]
Параметр BVOP формата                    : 2
Параметр QPel формата                    : Нет
Параметр GMC формата                     : Без точки перехода
Параметр матрицы формата                 : Default (H.263)
Идентификатор кодека                     : XVID
Идентификатор кодека/Подсказка           : XviD
Продолжительность                        : 53 м.
Битрейт                                  : 1800 Кбит/сек
Ширина                                   : 720 пикселей
Высота                                   : 320 пикселей
Соотношение сторон                       : 2,25:1
Частота кадров                           : 25,000 кадров/сек
Цветовое пространство                    : YUV
Субдискретизация насыщенности            : 4:2:0
Битовая глубина                          : 8 бит
Тип развёртки                            : Прогрессивная
Метод сжатия                             : С потерями
Бит/(Пиксели*Кадры)                      : 0.312
Размер потока                            : 695 Мбайт (93%)
Библиотека кодирования                   : XviD 73
Аудио
Идентификатор                            : 1
Формат                                   : MPEG Audio
Версия формата                           : Version 1
Профиль формата                          : Layer 3
Идентификатор кодека                     : 55
Идентификатор кодека/Подсказка           : MP3
Продолжительность                        : 53 м.
Вид битрейта                             : Переменный
Битрейт                                  : 128 Кбит/сек
Каналы                                   : 2 канала
Частота                                  : 48,0 КГц
Метод сжатия                             : С потерями
Размер потока                            : 49,4 Мбайт (7%)
Выравнивание                             : Соединение по промежуткам
Продолжительность промежутка             : 24  мс. (0,60 видеокадр)
Время предзагрузки промежутка            : 486  мс.
Download / Скачать

Хотите скачать бесплатно? Зарегистрируйтесь на сайте (ссылка на регистрацию). Pirat.ca - самый быстрый торрент трекер в рунете!

Как скачивать  ·   Что такое торрент  ·   Рейтинг и ограничения

alenfr

Пост 03-Фев-2015 16:58 (спустя 1 час 29 минут)

[Q] 

хм ,странно но я его не видел (((
РОМ В ТРЮМ !!!

_________________
Кто может — делает, кто не может — учит.
______________________________________
Держи порох сухим, а шпагу острой.
[Профиль]  [ЛС] 

Пост 03-Фев-2015 18:03 (спустя 1 час 5 минут)

Топик был перенесен из форума Наше кино (Трюм) в форум Советское кино
aleksey99
 

Steel_Rat

Штурман

Пост 03-Фев-2015 18:41 (спустя 1 час 43 минуты)

[Q] 

Да не скоро мы дождемся чего то подобного в современном русском кино! rum
[Профиль]  [ЛС] 
Показать сообщения:    
Ответить на тему

Текущее время: Сегодня 15:35

Часовой пояс: GMT + 4



Вы не можете начинать темы
Вы не можете отвечать на сообщения
Вы не можете редактировать свои сообщения
Вы не можете удалять свои сообщения
Вы не можете голосовать в опросах
Вы не можете прикреплять файлы к сообщениям
Вы не можете скачивать файлы

▼ Вниз