ML
     
  Уважаемый Гость!
Вы можете поддержать проект и зарегистрироваться у наших партнеров - онлайн-стратегия MyLands. При регистрации в игре Вы получите код, который сможете активировать после регистрации на pirat.ca и получить 1000 дублонов.

Ваш код:
c3360d664ceb84802c84b88ed062a5d134e2ba97
 
     

Где 042? (Олег Ленциус) [1969 г., военный, DVDRip]

Ответить на тему
 
Автор
Сообщение

Пост 20-Фев-2015 14:52

[Q] 

Мархуз

-Где 042?-- Производство: СССР, Киностудия им. А.Довженко
Режиссер: Олег Ленциус
Жанр: военный
Год выпуска: 1969 г.
Продолжительность: 01:12:29
В ролях: Анатолий Салимоненко, Болот Бейшеналиев, Александр Збруев, Яков Козлов, Владимир Олексеенко, Audris Hadaravicius, Александр Коваленко, Оксана Мелошкина-Описание: В основе сюжета - действительные события начала Великой Отечественной войны. Красноармеец Гаркуша и якут Номоконов после гибели всей команды остаются вдвоем на бронекатере № 042. Выполняя приказ Командования, герои взрывают мост через Днепр, но оказываются в тылу врага. Разными путями на катер попадают пехотинец, директор банка, артист и бежавший из тюрьмы уголовник.-Качество видео: DVDRip
Контейнер: AVI
Видео кодек: XviD
Аудио кодек: AC3
Видео: 688x400; 2252 kbps; 25 fps; 0.327 bit/pixel
Аудио: 448 kbps; 6 ch; 48 kHz
Cубтитры: отсутствуют
General
Complete name : D:\Torrent\Gde_042_[Pirat.ca].torrent.avi
Format : AVI
Format/Info : Audio Video Interleave
File size : 1.34 GiB
Duration : 1h 11mn
Overall bit rate : 2 710 Kbps
Writing library : VirtualDub build 35390/release
Video
ID : 0
Format : MPEG-4 Visual
Format profile : Advanced [email protected]
Format settings, BVOP : 2
Format settings, QPel : No
Format settings, GMC : No warppoints
Format settings, Matrix : Default (H.263)
Muxing mode : Packed bitstream
Codec ID : XVID
Codec ID/Hint : XviD
Duration : 1h 11mn
Bit rate : 2 252 Kbps
Width : 688 pixels
Height : 400 pixels
Display aspect ratio : 1.720
Frame rate : 25.000 fps
Color space : YUV
Chroma subsampling : 4:2:0
Bit depth : 8 bits
Scan type : Progressive
Compression mode : Lossy
Bits/(Pixel*Frame) : 0.327
Stream size : 1.12 GiB (83%)
Writing library : XviD 64
Audio
ID : 1
Format : AC-3
Format/Info : Audio Coding 3
Mode extension : CM (complete main)
Format settings, Endianness : Big
Codec ID : 2000
Duration : 1h 11mn
Bit rate mode : Constant
Bit rate : 448 Kbps
Channel(s) : 6 channels
Channel positions : Front: L C R, Side: L R, LFE
Sampling rate : 48.0 KHz
Bit depth : 16 bits
Compression mode : Lossy
Delay relative to video : 8ms
Stream size : 228 MiB (17%)
Alignment : Split accross interleaves
Interleave, duration : 40 ms (1.00 video frame)
Interleave, preload duratio : 500 ms

Раздача с 14.00 до 2.00 (время московское)
Download / Скачать

Хотите скачать бесплатно? Зарегистрируйтесь на сайте (ссылка на регистрацию). Pirat.ca - самый быстрый торрент трекер в рунете!

Как скачивать  ·   Что такое торрент  ·   Рейтинг и ограничения

Пост 20-Фев-2015 19:21 (спустя 4 часа)

Топик был перенесен из форума Наше кино (Трюм) в форум Советское кино
erchine
 

alersander

Морской Волк

Пост 20-Фев-2015 20:31 (спустя 5 часов)

[Q] 

Посмотрим Лови бочку
[Профиль]  [ЛС] 

Ivan13

Шкипер

Пост 21-Фев-2015 00:02 (спустя 3 часа)

[Q] 

Лови бочку нежданчик
поддержим
[Профиль]  [ЛС] 

R_O_Z_A

Морской Волк

Пост 25-Фев-2015 23:20 (спустя 4 дня)

[Q] 

Благодарю за релиз. Лови бочку
[Профиль]  [ЛС] 

Семен

Морской Волк

Пост 25-Мар-2015 21:00 (спустя 27 дней)

[Q] 

Не смотрел. Надо посмотреть обязательно. Спасибо!!!
[Профиль]  [ЛС] 
Показать сообщения:    
Ответить на тему

Текущее время: Сегодня 10:08

Часовой пояс: GMT + 4



Вы не можете начинать темы
Вы не можете отвечать на сообщения
Вы не можете редактировать свои сообщения
Вы не можете удалять свои сообщения
Вы не можете голосовать в опросах
Вы не можете прикреплять файлы к сообщениям
Вы не можете скачивать файлы

▼ Вниз