ML
     
  Уважаемый Гость!
Вы можете поддержать проект и зарегистрироваться у наших партнеров - онлайн-стратегия MyLands. При регистрации в игре Вы получите код, который сможете активировать после регистрации на pirat.ca и получить 1000 дублонов.

Ваш код:
cc3be08b7507661c03e0a2f582d0da3a659ea55a
 
     

Действуй по обстановке (Иван Горобец) [1984 г., военный, DVDRip]

Ответить на тему
 
Автор
Сообщение

Пост 21-Фев-2015 14:53

[Q] 

Мархуз

-Действуй по обстановке-- Производство: СССР, Одесская киностудия
Режиссер: Иван Горобец
Жанр: военный
Год выпуска: 1984 г.
Продолжительность: 01:05:09
В ролях: В.Юрченко, И.Резникова, А.Панкратов-Чёрный, А.Сторпирштис, Н.Ожелите, С.Молдаханов, И.Черницкий, С.Рий, И.Бортник, В.Анисимов-Описание: Фильм рассказывает о подвиге советских воинов на заключительном этапе Отечественной войны. Небольшой танковый отряд, который уже выполнил своё задание и возвращался по тылам врага, узнаёт, что фашисты собираются уничтожить несколько тысяч английских и американских военнопленных, и кидается их освобождать.-Качество видео: DVDRip
Контейнер: AVI
Видео кодек: XviD
Аудио кодек: AC3
Видео: 672x368; 1254 kbps; 25.000 fps; 0.203 bits/pixel
Аудио: 192 kbps; 2 ch;48 kHz;
Cубтитры: отсутствуют
General
Complete name : D:\Torrent\Dejstvuj_po_obstanovke_[Pirat.ca].torrent.avi
Format : AVI
Format/Info : Audio Video Interleave
File size : 650 MiB
Duration : 1h 2mn
Overall bit rate : 1 456 Kbps
Writing application : VirtualDubMod 1.5.10.2 (build 2540/release)
Writing library : VirtualDub build 35390/release
Video
ID : 0
Format : MPEG-4 Visual
Format profile : Advanced [email protected]
Format settings, BVOP : 2
Format settings, QPel : No
Format settings, GMC : No warppoints
Format settings, Matrix : Default (H.263)
Muxing mode : Packed bitstream
Codec ID : XVID
Codec ID/Hint : XviD
Duration : 1h 2mn
Bit rate : 1 254 Kbps
Width : 672 pixels
Height : 368 pixels
Display aspect ratio : 1.85:1
Frame rate : 25.000 fps
Color space : YUV
Chroma subsampling : 4:2:0
Bit depth : 8 bits
Scan type : Progressive
Compression mode : Lossy
Bits/(Pixel*Frame) : 0.203
Stream size : 560 MiB (86%)
Writing library : XviD 64
Audio
ID : 1
Format : AC-3
Format/Info : Audio Coding 3
Mode extension : CM (complete main)
Format settings, Endianness : Big
Codec ID : 2000
Duration : 1h 2mn
Bit rate mode : Constant
Bit rate : 192 Kbps
Channel(s) : 2 channels
Channel positions : Front: L R
Sampling rate : 48.0 KHz
Bit depth : 16 bits
Compression mode : Lossy
Stream size : 85.7 MiB (13%)
Alignment : Aligned on interleaves
Interleave, duration : 40 ms (1.00 video frame)
Interleave, preload duratio : 512 ms

Раздача с 14.00 до 2.00 (время московское)
Download / Скачать

Хотите скачать бесплатно? Зарегистрируйтесь на сайте (ссылка на регистрацию). Pirat.ca - самый быстрый торрент трекер в рунете!

Как скачивать  ·   Что такое торрент  ·   Рейтинг и ограничения

Пост 21-Фев-2015 17:45 (спустя 2 часа 52 минуты)

Топик был перенесен из форума Наше кино (Трюм) в форум Советское кино
aleksey99
 

Семен

Морской Волк

Пост 25-Мар-2015 21:13 (спустя 1 месяц 4 дня)

[Q] 

Приличный по качеству и содержанию фильм Спасибо!!!
[Профиль]  [ЛС] 

xzxscorpxzx

Флибустьер

Пост 11-Фев-2016 11:55 (спустя 10 месяцев 16 дней)

[Q] 

неплохой фильм
[Профиль]  [ЛС] 
Показать сообщения:    
Ответить на тему

Текущее время: Сегодня 05:07

Часовой пояс: GMT + 4



Вы не можете начинать темы
Вы не можете отвечать на сообщения
Вы не можете редактировать свои сообщения
Вы не можете удалять свои сообщения
Вы не можете голосовать в опросах
Вы не можете прикреплять файлы к сообщениям
Вы не можете скачивать файлы

▼ Вниз