ML
     
  Уважаемый Гость!
Вы можете поддержать проект и зарегистрироваться у наших партнеров - онлайн-стратегия MyLands. При регистрации в игре Вы получите код, который сможете активировать после регистрации на pirat.ca и получить 1000 дублонов.

Ваш код:
11f49771fdf057c9d51610e4a0925c3b46ddb655
 
     

Зимородок (Вячеслав Никифоров) [1972 г., военный, SATRip]

Ответить на тему
 
Автор
Сообщение

Пост 23-Фев-2015 17:05

[Q] 

Мархуз

-Зимородок-- Производство: СССР, «Беларусьфильм»
Режиссер: Вячеслав Никифоров
Жанр: военный
Год выпуска: 1972 г.
Продолжительность: 01:15:06
В ролях: Саша Кузьмин, Миша Мусыгин, Ира Нарбекова, Владимир Самойлов, Глеб Стриженов, Александр Хвыля, Александр Самойлов, Антонина Максимова, Виталий Базин, Михаил Брылкин, Мария Захаревич, Улдис Лиелдидж, Августин Милованов, Юрий Ступаков, Инна Федорова, Степан Хацкевич, Аркадий Трусов, Анатолий Обухов, Зинаида Адамович-Описание: Узнав от бывшего военного летчика Седого о подвиге партизана-подрывника, известного под именем Зимородок, пионеры идут по местам военных подвигов земляка. Бывшая подпольщица Михалина рассказывает, как Зимородок взорвал мост. Капитан милиции Сокольчик, попавший после взрыва в заложники, видел, как Зимородка схватили и приговорили к расстрелу, но мертвым его никто не видел. От вдовы командира партизанского отряда ребята узнают, что Зимородок был награжден посмертно, но в братской могиле он не похоронен. Ребята уверены, что герой войны жив и продолжают поиски...-Качество видео: SATRip
Контейнер: AVI
Видео кодек: XviD
Аудио кодек: MP3
Видео: 704x322; 721 kbps; 25 fps; 0.127 bit/pixel
Аудио: 192 kbps; 2 ch; 48 kHz
Cубтитры: отсутствуют
1973 г. - Приз ЦК ВЛКСМ «Алая гвоздика» за лучший фильм для детей
General
Complete name : D:\Torrent\Zimorodok_[Pirat.ca].torrent.avi
Format : AVI
Format/Info : Audio Video Interleave
File size : 486 MiB
Duration : 1h 13mn
Overall bit rate : 922 Kbps
Writing application : VirtualDubMod 1.5.10.2 (build 2540/release)
Writing library : VirtualDub build 35390/release
Video
ID : 0
Format : MPEG-4 Visual
Format profile : Advanced [email protected]
Format settings, BVOP : 2
Format settings, QPel : No
Format settings, GMC : No warppoints
Format settings, Matrix : Default (H.263)
Muxing mode : Packed bitstream
Codec ID : XVID
Codec ID/Hint : XviD
Duration : 1h 13mn
Bit rate : 721 Kbps
Width : 704 pixels
Height : 322 pixels
Display aspect ratio : 2.2:1
Frame rate : 25.000 fps
Color space : YUV
Chroma subsampling : 4:2:0
Bit depth : 8 bits
Scan type : Progressive
Compression mode : Lossy
Bits/(Pixel*Frame) : 0.127
Stream size : 380 MiB (78%)
Writing library : XviD 64
Audio
ID : 1
Format : MPEG Audio
Format version : Version 1
Format profile : Layer 2
Codec ID : 50
Duration : 1h 13mn
Bit rate mode : Constant
Bit rate : 192 Kbps
Channel(s) : 2 channels
Sampling rate : 48.0 KHz
Compression mode : Lossy
Stream size : 101 MiB (21%)
Alignment : Aligned on interleaves
Interleave, duration : 40 ms (1.00 video frame)
Interleave, preload duratio : 504 ms

Раздача с 14.00 до 2.00 (время московское)
Download / Скачать

Хотите скачать бесплатно? Зарегистрируйтесь на сайте (ссылка на регистрацию). Pirat.ca - самый быстрый торрент трекер в рунете!

Как скачивать  ·   Что такое торрент  ·   Рейтинг и ограничения

kinstintin

Гроза морей

Пост 23-Фев-2015 19:03 (спустя 1 час 58 минут)

[Q] 

Спа-Си-Бо!
Раздающему респект!
[Профиль]  [ЛС] 

Пост 23-Фев-2015 19:52 (спустя 49 минут)

Топик был перенесен из форума Наше кино (Трюм) в форум Советское кино
aleksey99
 

R_O_Z_A

Морской Волк

Пост 25-Фев-2015 22:54 (спустя 2 дня 3 часа)

[Q] 

Фильм моего детства.
Раздающему респект!
[Профиль]  [ЛС] 

Семен

Морской Волк

Пост 25-Мар-2015 21:06 (спустя 27 дней)

[Q] 

Годы славы героев, коих сейчас мало! Автору респект!!!
[Профиль]  [ЛС] 
Показать сообщения:    
Ответить на тему

Текущее время: Сегодня 03:09

Часовой пояс: GMT + 4



Вы не можете начинать темы
Вы не можете отвечать на сообщения
Вы не можете редактировать свои сообщения
Вы не можете удалять свои сообщения
Вы не можете голосовать в опросах
Вы не можете прикреплять файлы к сообщениям
Вы не можете скачивать файлы

▼ Вниз