ML
     
  Уважаемый Гость!
Вы можете поддержать проект и зарегистрироваться у наших партнеров - онлайн-стратегия MyLands. При регистрации в игре Вы получите код, который сможете активировать после регистрации на pirat.ca и получить 1000 дублонов.

Ваш код:
a01a592a88af5f9996a6d1baec61b18a1769954d
 
     

Мой боевой расчет (Михаил Никитин) [1987 г., военный, DVDRip]

Ответить на тему
 
Автор
Сообщение

Пост 24-Фев-2015 16:07

[Q] 

Мархуз

-Мой боевой расчет-- Производство: СССР, Киностудия «Ленфильм»
Режиссер: Михаил Никитин
Жанр: военный
Год выпуска: 1987 г.
Продолжительность: 01:34:03
В ролях: Валерий Смирнов, Наталья Егорова, Светлана Копылова, Валерий Приёмыхов, Лев Борисов, Людмила Полякова, Александр Семенов,Николай Бирюков, Сергей Бирюков-Описание: 1945 год, война позади. Восемнадцатилетний сержант Сергей Кружкой после тяжелого ранения возвращается домой. Узнав, что в городе орудует банда преступников, герой решает помочь органам правопорядка - и в одиночку начинает расследование.
После первого столкновения с бандитами Сергей попадает в госпиталь. К нему приезжают фронтовые друзья - и они вместе разрабатывают план действий…-Качество видео: DVDRip
Контейнер: AVI
Видео кодек: XviD
Аудио кодек: MP3
Видео: 688x536; 1527 kbps; 25 fps; 0.166 bit/pixel
Аудио: 112 kbps; 1 ch; 48 kHz
Cубтитры: отсутствуют
General
Complete name : D:\Torrent\Moj_boevoj_raschot_[Pirat.ca].torrent.avi
Format : AVI
Format/Info : Audio Video Interleave
File size : 1.08 GiB
Duration : 1h 33mn
Overall bit rate : 1 649 Kbps
Writing application : VirtualDubMod 1.5.10.2 (build 2542/release)
Writing library : VirtualDub build 35390/release
Video
ID : 0
Format : MPEG-4 Visual
Format profile : Advanced [email protected]
Format settings, BVOP : 2
Format settings, QPel : No
Format settings, GMC : No warppoints
Format settings, Matrix : Default (H.263)
Muxing mode : Packed bitstream
Codec ID : XVID
Codec ID/Hint : XviD
Duration : 1h 33mn
Bit rate : 1 527 Kbps
Width : 688 pixels
Height : 536 pixels
Display aspect ratio : 1.284
Frame rate : 25.000 fps
Color space : YUV
Chroma subsampling : 4:2:0
Bit depth : 8 bits
Scan type : Progressive
Compression mode : Lossy
Bits/(Pixel*Frame) : 0.166
Stream size : 1.00 GiB (93%)
Writing library : XviD 64
Audio
ID : 1
Format : MPEG Audio
Format version : Version 1
Format profile : Layer 3
Codec ID : 55
Codec ID/Hint : MP3
Duration : 1h 33mn
Bit rate mode : Constant
Bit rate : 112 Kbps
Channel(s) : 1 channel
Sampling rate : 48.0 KHz
Compression mode : Lossy
Stream size : 75.1 MiB (7%)
Alignment : Aligned on interleaves
Interleave, duration : 40 ms (1.00 video frame)
Interleave, preload duratio : 504 ms
Writing library : LAME3.97

Раздача с 14.00 до 2.00 (время московское)
Download / Скачать

Хотите скачать бесплатно? Зарегистрируйтесь на сайте (ссылка на регистрацию). Pirat.ca - самый быстрый торрент трекер в рунете!

Как скачивать  ·   Что такое торрент  ·   Рейтинг и ограничения

Пост 24-Фев-2015 18:27 (спустя 2 часа 19 минут)

Топик был перенесен из форума Наше кино (Трюм) в форум Советское кино
kugesan
 

Семен

Морской Волк

Пост 25-Мар-2015 21:10 (спустя 1 месяц 1 день)

[Q] 

Странно, как я его пропустил в детстве? Наверстаем)))
[Профиль]  [ЛС] 

xzxscorpxzx

Флибустьер

Пост 11-Фев-2016 09:02 (спустя 10 месяцев 16 дней)

[Q] 

тоже не видел(
[Профиль]  [ЛС] 
Показать сообщения:    
Ответить на тему

Текущее время: Сегодня 09:47

Часовой пояс: GMT + 4



Вы не можете начинать темы
Вы не можете отвечать на сообщения
Вы не можете редактировать свои сообщения
Вы не можете удалять свои сообщения
Вы не можете голосовать в опросах
Вы не можете прикреплять файлы к сообщениям
Вы не можете скачивать файлы

▼ Вниз